<?xml version="1.0" standalone="no"?>
<!DOCTYPE svg PUBLIC "-//W3C//DTD SVG 1.1//EN" "http://www.w3.org/Graphics/SVG/1.1/DTD/svg11.dtd" >
<svg xmlns="http://www.w3.org/2000/svg">
<metadata>
Created by FontPrep 20130207 at Thu Oct 19 18:04:49 2017
 By Giovanni Di Maggio
Typeface (c) The Monotype Corporation plc. Data (c) The Monotype Corporation plc / Type Solutions Inc. 1990-91 All Rights Reserved
</metadata>
<defs>
<font id="e8822cb86844068280e5784dfd42de7a" horiz-adv-x='1024' >
  <font-face 
    font-family="CenturyGothic-Bold"
    font-weight="700"
    font-stretch="normal"
    units-per-em="2048"
    panose-1="2 11 7 2 2 2 2 2 2 4"
    ascent="1638"
    descent="-410"
    x-height="1088"
    cap-height="1471"
    bbox="-235 -628 2580 2297"
    underline-thickness="184"
    underline-position="-96"
    unicode-range="U+0020-F108"
  />
<missing-glyph horiz-adv-x="1536" 
d="M288 32h960v1216h-960v-1216zM256 0v1280h1024v-1280h-1024z" />
    <glyph glyph-name=".notdef" horiz-adv-x="1536" 
d="M288 32h960v1216h-960v-1216zM256 0v1280h1024v-1280h-1024z" />
    <glyph glyph-name="glyph1" horiz-adv-x="0" 
 />
    <glyph glyph-name="glyph2" horiz-adv-x="573" 
 />
    <glyph glyph-name="space" unicode=" " horiz-adv-x="573" 
 />
    <glyph glyph-name="exclam" unicode="!" horiz-adv-x="573" 
d="M286 314q71 0 121.5 -50t50.5 -120t-50.5 -121t-121.5 -51t-121 50t-50 121t50 121t121 50zM148 1508h276v-1075h-276v1075z" />
    <glyph glyph-name="quotedbl" unicode="&#x22;" horiz-adv-x="737" 
d="M242 1004h-156l-55 504h267zM653 1004h-156l-55 504h267z" />
    <glyph glyph-name="numbersign" unicode="#" 
d="M736 866h-194l-26 -188h189zM1110 678v-199h-231l-71 -479h-201l70 479h-191l-70 -479h-200l70 479h-225v199h256l30 188h-223v199h251l65 443h195l-62 -443h191l65 443h201l-65 -443h202v-199h-231l-26 -188h200z" />
    <glyph glyph-name="dollar" unicode="$" horiz-adv-x="1147" 
d="M585 1249q-76 0 -123.5 -40.5t-47.5 -89.5t42 -93t214 -116q174 -72 256 -137t126 -156t44 -204t-47 -209t-121 -152t-213 -85v-267h-188v261q-131 15 -240 75t-217 177l190 195q183 -195 354 -195q87 0 149.5 60.5t62.5 136.5t-40 127q-41 52 -158 106
q-238 110 -363.5 206.5t-125.5 284.5q0 151 110 258.5t278 115.5v100h188v-113q97 -23 164.5 -62t159.5 -132l-193 -188q-132 136 -261 136z" />
    <glyph glyph-name="percent" unicode="%" horiz-adv-x="1761" 
d="M1366 482q-70 0 -119.5 -50t-49.5 -120t49.5 -120t119.5 -50t120 50t50 120t-50 120t-120 50zM1368 663q146 0 248.5 -102.5t102.5 -248.5t-102.5 -249t-248.5 -103t-248.5 103t-102.5 249t102.5 248.5t248.5 102.5zM393 1325q-70 0 -119.5 -49.5t-49.5 -119.5t49.5 -119
t119.5 -49t119.5 49.5t49.5 119.5t-49.5 119t-119.5 49zM901 1275q-102 0 -179 7q22 -70 22 -127q0 -146 -102 -248t-248 -102t-249 102t-103 247q0 94 46 174.5t129.5 130t155.5 49.5t223 -33t298 -33q266 0 458 94h202l-1166 -1636h-202l997 1405q-180 -30 -282 -30z" />
    <glyph glyph-name="ampersand" unicode="&#x26;" horiz-adv-x="1393" 
d="M358 331q0 -43 40 -79t116 -36t210 78q-77 76 -217 252q-149 -123 -149 -215zM669 1070q0 38 -24.5 62t-64.5 24t-66.5 -27t-26.5 -63q0 -72 71 -164q111 95 111 168zM490 -37q-184 0 -288.5 99t-104.5 254q0 117 59 221t202 215q-141 191 -141 338q0 109 94 215t266 106
t264.5 -104.5t92.5 -200.5t-42.5 -173t-195.5 -228q179 -211 231 -263q32 24 163 136l167 -191l-151 -137l236 -250h-339l-97 100q-232 -137 -416 -137z" />
    <glyph glyph-name="quotesingle" unicode="'" horiz-adv-x="451" 
d="M303 1004h-156l-55 504h266z" />
    <glyph glyph-name="parenleft" unicode="(" horiz-adv-x="778" 
d="M373 550q0 -314 97 -562q76 -191 256 -414h-346q-160 254 -223.5 475.5t-63.5 518.5t67 518t220 450h346q-178 -201 -265.5 -436.5t-87.5 -549.5z" />
    <glyph glyph-name="parenright" unicode=")" horiz-adv-x="778" 
d="M406 559q0 315 -97 562q-76 191 -256 415h346q160 -254 223.5 -475.5t63.5 -518.5t-67 -518t-220 -450h-346q178 201 265.5 435.5t87.5 549.5z" />
    <glyph glyph-name="asterisk" unicode="*" horiz-adv-x="901" 
d="M331 1508h254l-79 -301l226 213l117 -220l-305 -78l305 -87l-132 -217l-218 217l77 -300h-245l77 300l-223 -217l-133 217l306 87l-306 85l133 223l223 -223z" />
    <glyph glyph-name="plus" unicode="+" 
d="M490 860v375h250v-375h374v-250h-374v-374h-250v374h-375v250h375z" />
    <glyph glyph-name="comma" unicode="," horiz-adv-x="573" 
d="M269 277l195 -98l-247 -422l-136 65z" />
    <glyph glyph-name="hyphen" unicode="-" horiz-adv-x="860" 
d="M176 669h508v-254h-508v254z" />
    <glyph glyph-name="hyphen" unicode="&#xad;" horiz-adv-x="860" 
d="M176 669h508v-254h-508v254z" />
    <glyph glyph-name="period" unicode="." horiz-adv-x="573" 
d="M287 285q65 0 111 -45.5t46 -110.5t-46 -111t-111 -46t-111 46t-46 111t46 110.5t111 45.5z" />
    <glyph glyph-name="slash" unicode="/" horiz-adv-x="942" 
d="M44 -262l661 1775h194l-662 -1775h-193z" />
    <glyph glyph-name="zero" unicode="0" horiz-adv-x="1147" 
d="M576 223q235 0 235 509q0 290 -65.5 400t-169.5 110q-157 0 -198 -157t-41 -403t66.5 -352.5t172.5 -106.5zM569 1508q332 0 426.5 -241t94.5 -533t-64.5 -455t-173.5 -239.5t-275 -76.5t-279 77t-177 234t-64 447q0 405 132 596t380 191z" />
    <glyph glyph-name="one" unicode="1" horiz-adv-x="1147" 
d="M756 1471v-1471h-278v1208h-303l162 263h419z" />
    <glyph glyph-name="two" unicode="2" horiz-adv-x="1147" 
d="M589 1508q274 0 368 -163t94 -283t-74.5 -271.5t-272.5 -357.5l-165 -174h524v-259h-1019v134l455 464q165 167 219.5 268.5t54.5 185.5t-56.5 139t-146.5 55t-149.5 -67t-63.5 -182h-273q11 238 149.5 374.5t355.5 136.5z" />
    <glyph glyph-name="three" unicode="3" horiz-adv-x="1147" 
d="M338 445q36 -225 237 -225q96 0 160.5 63t64.5 159t-87 164.5t-251 70.5v240q101 8 150.5 31.5t77 64.5t27.5 94t-42 92.5t-106 39.5t-113 -36.5t-67 -94.5h-269q21 163 117 262q134 138 326 138t314.5 -115t122.5 -273q0 -98 -53.5 -179t-155.5 -131
q134 -40 209.5 -139.5t75.5 -234.5q0 -198 -146 -335.5t-366 -137.5t-355 129.5t-148 352.5h277z" />
    <glyph glyph-name="four" unicode="4" horiz-adv-x="1147" 
d="M684 561v493l-336 -493h336zM958 1508v-947h131v-259h-131v-302h-274v302h-642v259l636 947h280z" />
    <glyph glyph-name="five" unicode="5" horiz-adv-x="1147" 
d="M567 695q-89 0 -175 -92l-228 51l178 817h689v-258h-480l-60 -268q50 14 95 14q200 0 332.5 -136.5t132.5 -350.5t-146.5 -361.5t-345.5 -147.5t-334 107t-177 293h294q69 -140 212 -140q93 0 158 66.5t65 170.5t-60.5 169.5t-149.5 65.5z" />
    <glyph glyph-name="six" unicode="6" horiz-adv-x="1147" 
d="M561 624q-80 0 -133 -56.5t-53 -141.5t55.5 -143t131.5 -58t132 57t56 143t-54.5 142.5t-134.5 56.5zM1024 426q0 -196 -135 -329.5t-329 -133.5t-326.5 138.5t-132.5 317.5q0 68 20.5 137t94.5 212l378 740l238 -119l-257 -500q187 0 318 -133.5t131 -329.5z" />
    <glyph glyph-name="seven" unicode="7" horiz-adv-x="1147" 
d="M123 1471h965v-147l-664 -1361l-237 115l552 1130h-616v263z" />
    <glyph glyph-name="eight" unicode="8" horiz-adv-x="1147" 
d="M575 648q-100 0 -169 -61.5t-69 -148.5t65.5 -148.5t171.5 -61.5t169.5 57.5t63.5 148.5t-66 152.5t-166 61.5zM568 1238q-72 0 -116.5 -45.5t-44.5 -116.5t47 -119t117 -48t115.5 47t45.5 120t-46 117.5t-118 44.5zM132 1099q0 115 55.5 209.5t155.5 147t230 52.5
t228 -53t154.5 -150t56.5 -193t-29.5 -163.5t-107.5 -151.5q100 -64 154.5 -164.5t54.5 -222.5t-95.5 -284.5t-411.5 -162.5q-178 0 -283 52.5t-168 159t-63 240.5q0 232 202 382q-133 135 -133 302z" />
    <glyph glyph-name="nine" unicode="9" horiz-adv-x="1147" 
d="M586 846q80 0 133 57t53 142t-55.5 143t-131.5 58t-132 -57t-56 -143t54.5 -143t134.5 -57zM123 1045q0 196 134.5 329.5t328.5 133.5t327 -138.5t133 -318.5q0 -68 -20.5 -136.5t-94.5 -211.5l-378 -740l-238 118l257 500q-187 0 -318 134t-131 330z" />
    <glyph glyph-name="colon" unicode=":" horiz-adv-x="573" 
d="M287 285q65 0 111 -45.5t46 -110.5t-46 -111t-111 -46t-111 46t-46 111t46 110.5t111 45.5zM287 1116q65 0 111 -46t46 -110t-46 -110.5t-111 -46.5t-111 45.5t-46 110.5t46 111t111 46z" />
    <glyph glyph-name="semicolon" unicode=";" horiz-adv-x="573" 
d="M271 278l191 -100l-245 -421l-137 66zM287 1116q65 0 111 -46t46 -111t-46 -110.5t-111 -45.5t-111 45.5t-46 110.5t46 111t111 46z" />
    <glyph glyph-name="semicolon" unicode="&#x37e;" horiz-adv-x="573" 
d="M271 278l191 -100l-245 -421l-137 66zM287 1116q65 0 111 -46t46 -111t-46 -110.5t-111 -45.5t-111 45.5t-46 110.5t46 111t111 46z" />
    <glyph glyph-name="less" unicode="&#x3c;" 
d="M1114 366v-250l-999 508v222l999 508v-249l-712 -370z" />
    <glyph glyph-name="equal" unicode="=" 
d="M115 646h999v-250h-999v250zM115 1074h999v-250h-999v250z" />
    <glyph glyph-name="greater" unicode="&#x3e;" 
d="M115 1105v249l999 -508v-222l-999 -508v250l713 369z" />
    <glyph glyph-name="question" unicode="?" horiz-adv-x="1147" 
d="M554 315q72 0 123.5 -50t51.5 -121t-51 -121.5t-123 -50.5t-122.5 50.5t-50.5 121.5t50 121t122 50zM585 1536q276 0 367 -150t91 -263t-79 -228q-24 -35 -113 -116t-124.5 -133.5t-42.5 -216.5h-271l-1 45q0 267 208 449q106 93 128 128t22 91t-53.5 100t-144.5 44
t-150 -54.5t-60 -140.5h-262q-2 193 132 319t353 126z" />
    <glyph glyph-name="at" unicode="@" horiz-adv-x="1515" 
d="M746 526q80 0 137 71.5t57 155.5t-46.5 133.5t-122.5 49.5t-137 -68t-61 -156t46.5 -137t126.5 -49zM751 1161q160 0 247 -131l21 105h196l-99 -583q-10 -62 -10 -72t11 -19t35 -9t83.5 48.5t97 140t37.5 227.5t-71 259.5t-204 194.5t-309 71t-320.5 -80.5t-227.5 -228
t-83 -326.5t84 -326t235 -229t338 -82q110 0 208 41t208 139h191q-109 -135 -241.5 -231.5t-364.5 -96.5q-231 0 -414 104.5t-287 284.5t-104 393t104.5 397t285 286t396.5 102q300 0 506.5 -193t206.5 -449q0 -188 -86.5 -323.5t-218.5 -202.5t-208 -67q-118 0 -122 107
q-88 -97 -222 -97t-228.5 101.5t-94.5 277.5t116 321.5t308 145.5z" />
    <glyph glyph-name="A" unicode="A" horiz-adv-x="1515" 
d="M760 1081l-196 -505h391zM616 1471h284l566 -1471h-291l-115 303h-600l-120 -303h-291z" />
    <glyph glyph-name="B" unicode="B" horiz-adv-x="1188" 
d="M813 439q0 205 -307 205h-58v-377h70q174 0 234.5 44t60.5 128zM448 1204v-310h61q102 0 151.5 43t49.5 115t-47 112t-143 40h-72zM1088 429q0 -124 -64 -226t-165 -152.5t-279 -50.5h-412v1471h231q201 0 294 -26q132 -35 210 -130t78 -224q0 -168 -151 -281
q258 -121 258 -381z" />
    <glyph glyph-name="C" unicode="C" horiz-adv-x="1597" 
d="M874 1236q-211 0 -355.5 -144t-144.5 -355q0 -147 64 -261t181 -179t249 -65t233.5 45.5t222.5 165.5l190 -198q-163 -159 -308 -220.5t-331 -61.5q-343 0 -561.5 217.5t-218.5 557.5q0 220 99.5 391t285 275t383.5 104t366.5 -77t290.5 -219l-196 -187
q-200 211 -450 211z" />
    <glyph glyph-name="D" unicode="D" horiz-adv-x="1434" 
d="M448 1201v-927h130q192 0 278.5 44t141.5 148t55 256q0 479 -510 479h-95zM169 1471h332q321 0 477 -79.5t257 -258.5t101 -418q0 -170 -56.5 -312.5t-156 -236.5t-215.5 -130t-402 -36h-337v1471z" />
    <glyph glyph-name="E" unicode="E" horiz-adv-x="1065" 
d="M169 1471h803v-274h-525v-266h525v-269h-525v-387h525v-275h-803v1471z" />
    <glyph glyph-name="F" unicode="F" horiz-adv-x="983" 
d="M172 1471h730v-273h-453v-267h453v-269h-453v-662h-277v1471z" />
    <glyph glyph-name="G" unicode="G" horiz-adv-x="1720" 
d="M893 1234q-217 0 -363.5 -144t-146.5 -354t152 -357.5t375 -147.5q287 0 405 252h-426v263h740l2 -62q0 -193 -152.5 -457t-579.5 -264q-229 0 -408.5 99.5t-284 283.5t-104.5 397q0 292 193 508q229 257 596 257q192 0 346 -66t289 -211l-197 -195q-187 198 -436 198z
" />
    <glyph glyph-name="H" unicode="H" horiz-adv-x="1393" 
d="M167 1471h284v-555h492v555h283v-1471h-283v645h-492v-645h-284v1471z" />
    <glyph glyph-name="I" unicode="I" horiz-adv-x="573" 
d="M148 1471h278v-1471h-278v1471z" />
    <glyph glyph-name="J" unicode="J" horiz-adv-x="983" 
d="M534 1471h281v-976q0 -233 -37 -327t-122 -149.5t-204 -55.5q-243 0 -414 213l202 189q67 -76 114.5 -102t91.5 -26t66 38t22 167v1029z" />
    <glyph glyph-name="K" unicode="K" horiz-adv-x="1270" 
d="M170 1471h283v-506l399 506h337l-514 -656l564 -815h-332l-454 653v-653h-283v1471z" />
    <glyph glyph-name="L" unicode="L" horiz-adv-x="901" 
d="M168 1471h280v-1204h408v-267h-688v1471z" />
    <glyph glyph-name="M" unicode="M" horiz-adv-x="1843" 
d="M310 1471h274l340 -1026l345 1026h270l248 -1471h-270l-158 929l-313 -929h-247l-309 929l-161 -929h-273z" />
    <glyph glyph-name="N" unicode="N" horiz-adv-x="1515" 
d="M169 1471h268l631 -968v968h280v-1471h-269l-630 965v-965h-280v1471z" />
    <glyph glyph-name="O" unicode="O" horiz-adv-x="1720" 
d="M859 1234q-203 0 -342 -142t-139 -374t175 -373q135 -111 323 -111t328 144t140 354t-141 356t-344 146zM863 1508q312 0 536.5 -226t224.5 -550t-221 -546.5t-545 -222.5t-543 229t-219 544q0 211 102 388t280.5 280.5t384.5 103.5z" />
    <glyph glyph-name="P" unicode="P" horiz-adv-x="1147" 
d="M447 896h89q105 0 169.5 23.5t64.5 116.5t-66 132q-48 29 -178 29h-79v-301zM167 1471h297q241 0 347.5 -44.5t168 -144.5t61.5 -246t-80.5 -248t-218.5 -142q-81 -23 -295 -23v-623h-280v1471z" />
    <glyph glyph-name="Q" unicode="Q" horiz-adv-x="1720" 
d="M1344 733q0 209 -141 355t-344 146t-342 -142t-139 -374t175 -373q137 -111 311 -111q100 0 188 39l-263 339h334l132 -171q89 132 89 292zM865 -37q-331 0 -550 228.5t-219 544.5q0 211 102 387.5t280.5 280.5t383.5 104q313 0 537.5 -226t224.5 -538t-194 -529
l256 -331h-332l-130 167q-161 -88 -359 -88z" />
    <glyph glyph-name="R" unicode="R" horiz-adv-x="1188" 
d="M467 896h88q134 0 184.5 35t50.5 116q0 48 -25 83.5t-67 51t-154 15.5h-77v-301zM1061 1044q0 -290 -279 -390l348 -654h-306l-331 623h-26v-623h-280v1471h297q244 0 347.5 -43.5t166.5 -144.5t63 -239z" />
    <glyph glyph-name="S" unicode="S" horiz-adv-x="1065" 
d="M510 1240q-55 0 -90 -29.5t-35.5 -67t29.5 -75.5t196 -178t199 -174q85 -86 120.5 -164.5t35.5 -171.5q0 -181 -125 -299t-326 -118q-157 0 -273.5 77t-199.5 242l235 142q106 -195 244 -195q72 0 121 42.5t49 94.5t-37 102t-163 153q-240 196 -310 302.5t-70 212.5
q0 153 116.5 262.5t287.5 109.5q110 0 209.5 -51t215.5 -186l-207 -183q-109 152 -222 152z" />
    <glyph glyph-name="T" unicode="T" horiz-adv-x="860" 
d="M23 1471h813v-276h-268v-1195h-284v1195h-261v276z" />
    <glyph glyph-name="U" unicode="U" horiz-adv-x="1311" 
d="M158 1471h281v-952q0 -123 21.5 -174t71 -81.5t121.5 -30.5t125.5 34t74 86.5t20.5 200.5v917h281v-877q0 -222 -25 -308t-129.5 -204.5t-342.5 -118.5q-160 0 -278.5 73.5t-169.5 184t-51 373.5v877z" />
    <glyph glyph-name="V" unicode="V" horiz-adv-x="1434" 
d="M56 1471h288l370 -1045l375 1045h288l-530 -1471h-270z" />
    <glyph glyph-name="W" unicode="W" horiz-adv-x="1843" 
d="M56 1471h276l212 -939l263 939h233l266 -939l210 939h276l-331 -1471h-269l-271 951l-266 -951h-266z" />
    <glyph glyph-name="X" unicode="X" horiz-adv-x="1393" 
d="M72 1471h315l308 -471l311 471h315l-468 -712l497 -759h-315l-340 517l-337 -517h-317l497 759z" />
    <glyph glyph-name="Y" unicode="Y" horiz-adv-x="1270" 
d="M777 0h-282v637l-432 834h301l274 -528l272 528h297l-430 -834v-637z" />
    <glyph glyph-name="Z" unicode="Z" horiz-adv-x="1024" 
d="M90 1471h890l-525 -1202h491v-269h-899l523 1194h-480v277z" />
    <glyph glyph-name="bracketleft" unicode="[" horiz-adv-x="655" 
d="M169 1508h438v-255h-162v-1397h162v-254h-438v1906z" />
    <glyph glyph-name="backslash" unicode="\" horiz-adv-x="1311" 
d="M1082 -262h-193l-661 1775h193z" />
    <glyph glyph-name="bracketright" unicode="]" horiz-adv-x="655" 
d="M486 -398h-438v255h162v1397h-162v254h438v-1906z" />
    <glyph glyph-name="asciicircum" unicode="^" 
d="M497 1471h232l390 -1105h-242l-262 748l-263 -748h-243z" />
    <glyph glyph-name="underscore" unicode="_" horiz-adv-x="1024" 
d="M-12 -154h1048v-102h-1048v102z" />
    <glyph glyph-name="grave" unicode="`" horiz-adv-x="860" 
d="M382 1679l239 -392h-196l-366 392h323z" />
    <glyph glyph-name="a" unicode="a" horiz-adv-x="1352" 
d="M656 864q-128 0 -212 -90t-84 -230t85.5 -231t212.5 -91t212 89t85 233t-85.5 232t-213.5 88zM591 1116q205 0 351 -148v120h272v-1088h-272v115q-151 -143 -348 -143q-198 0 -352 163t-154 411t149 409t354 161z" />
    <glyph glyph-name="b" unicode="b" horiz-adv-x="1352" 
d="M696 864q-128 0 -213.5 -88t-85.5 -232t85 -233t212 -89t212.5 91t85.5 231t-84 230t-212 90zM758 -28q-198 0 -349 143v-115h-271v1508h271v-540q149 148 353 148t353 -161t149 -409t-154 -411t-352 -163z" />
    <glyph glyph-name="c" unicode="c" horiz-adv-x="1311" 
d="M703 862q-153 0 -247.5 -91.5t-94.5 -232.5t91 -229t239 -88q183 0 285 125l215 -147q-175 -227 -478 -227t-465.5 170t-162.5 398q0 158 79 291t220.5 209t309.5 76q338 0 509 -248l-227 -125q-64 67 -126.5 93t-146.5 26z" />
    <glyph glyph-name="d" unicode="d" horiz-adv-x="1352" 
d="M656 864q-128 0 -212 -90t-84 -230t85.5 -231t212.5 -91t212 89t85 233t-85.5 232t-213.5 88zM591 1116q205 0 351 -148v540h272v-1508h-272v115q-151 -143 -348 -143q-198 0 -352 163t-154 411t149 409t354 161z" />
    <glyph glyph-name="e" unicode="e" horiz-adv-x="1311" 
d="M658 885q-110 0 -195 -64q-54 -40 -100 -141h591q-27 91 -106.5 148t-189.5 57zM87 541q0 246 160.5 410.5t410.5 164.5t410.5 -164.5t160.5 -434.5l-1 -52h-877q19 -116 102 -184.5t223 -68.5t250 107l230 -108q-168 -239 -491 -239q-256 0 -417 161.5t-161 407.5z" />
    <glyph glyph-name="f" unicode="f" horiz-adv-x="573" 
d="M8 1088h97q1 214 7 253q11 90 75.5 142.5t166.5 52.5t208 -39v-208q-59 17 -102 17t-62 -18t-19 -64l-1 -136h173v-232h-173v-856h-273v856h-97v232z" />
    <glyph glyph-name="g" unicode="g" horiz-adv-x="1352" 
d="M660 861q-130 0 -214 -86.5t-84 -220.5t86 -220.5t214 -86.5t211 85t83 222t-83 222t-213 85zM91 566q1 250 153 400t346 150t352 -148v120h272v-932q0 -276 -111 -406q-149 -176 -449 -176t-414 117.5t-150 228.5h301q81 -93 252 -93q209 0 254 88t45 220
q-135 -135 -342 -135t-358 158t-151 408z" />
    <glyph glyph-name="h" unicode="h" 
d="M734 1116q164 0 266 -104q103 -104 103 -293v-719h-269v477q0 189 -27 289t-160 100q-83 0 -142.5 -55t-82.5 -150q-12 -49 -12 -224v-437h-271v1508h271v-530q160 138 324 138z" />
    <glyph glyph-name="i" unicode="i" horiz-adv-x="491" 
d="M108 1088h274v-1088h-274v1088zM245 1536q72 0 123.5 -52t51.5 -126t-51 -125t-123 -51t-123.5 52t-51.5 126t51 125t123 51z" />
    <glyph glyph-name="j" unicode="j" horiz-adv-x="532" 
d="M130 1088h273v-1124q0 -155 -30.5 -231.5t-96.5 -117.5t-154 -41t-209 41v215q65 -31 115 -31t76 31t26 114v1144zM266 1536q72 0 124 -52t52 -126t-51 -125.5t-123 -51.5t-123.5 52.5t-51.5 126.5t50.5 125t122.5 51z" />
    <glyph glyph-name="k" unicode="k" horiz-adv-x="1188" 
d="M140 1508h273v-869l402 449h342l-468 -522l525 -566h-339l-462 501v-501h-273v1508z" />
    <glyph glyph-name="l" unicode="l" horiz-adv-x="491" 
d="M109 1508h273v-1508h-273v1508z" />
    <glyph glyph-name="m" unicode="m" horiz-adv-x="1925" 
d="M1434 1116q116 0 204 -54t126.5 -141t38.5 -283v-638h-275v552q0 185 -46 250.5t-127 65.5t-136.5 -40t-82.5 -110.5t-27 -226.5v-491h-275v527q0 146 -32 243.5t-158 97.5q-68 0 -123.5 -40.5t-83 -113.5t-27.5 -230v-484h-274v1088h274v-125q139 153 342 153
q102 0 184 -50t132 -146q133 196 366 196z" />
    <glyph glyph-name="n" unicode="n" 
d="M138 1088h272v-111q93 78 168.5 108.5t154.5 30.5q162 0 275 -113q95 -96 95 -284v-719h-270v477q0 195 -26.5 292.5t-159.5 97.5q-83 0 -142.5 -55.5t-82.5 -153.5q-12 -51 -12 -221v-437h-272v1088z" />
    <glyph glyph-name="o" unicode="o" horiz-adv-x="1311" 
d="M654 859q-128 0 -212.5 -88.5t-84.5 -228.5t83.5 -228t211.5 -88t213 89t85 229t-84 227.5t-212 87.5zM649 1116q154 0 289.5 -77t211.5 -209t76 -286t-76.5 -287.5t-208.5 -209t-291 -75.5q-234 0 -399.5 167t-165.5 413q-1 246 175 405t389 159z" />
    <glyph glyph-name="p" unicode="p" horiz-adv-x="1352" 
d="M696 864q-128 0 -213.5 -88t-85.5 -232t85 -233t212 -89t212.5 91t85.5 231t-84 230t-212 90zM758 -28q-198 0 -349 143v-513h-271v1486h271v-120q149 148 353 148t353 -161t149 -409t-154 -411t-352 -163z" />
    <glyph glyph-name="q" unicode="q" horiz-adv-x="1352" 
d="M656 864q-128 0 -212 -90t-84 -230t85.5 -231t212.5 -91t212 89t85 233t-85.5 232t-213.5 88zM591 1116q205 0 351 -148v120h272v-1486h-272v513q-151 -143 -348 -143q-198 0 -352 163t-154 411t149 409t354 161z" />
    <glyph glyph-name="r" unicode="r" horiz-adv-x="655" 
d="M74 1088h234v-137q38 81 101 123t127 42t122 -28l-85 -235q-48 24 -79 24q-63 0 -106.5 -78t-43.5 -306l1 -53v-440h-271v1088z" />
    <glyph glyph-name="s" unicode="s" horiz-adv-x="901" 
d="M448 869q-46 0 -72 -19.5t-26 -45.5t16.5 -44t81.5 -50l100 -50q158 -78 217 -159t59 -190q0 -145 -106.5 -242t-285.5 -97q-238 0 -380 186l168 183q48 -56 112.5 -90.5t116.5 -34.5t85 26t33 60q0 63 -119 123l-92 46q-264 133 -264 333q0 129 99.5 220.5t254.5 91.5
q106 0 199.5 -46.5t158.5 -133.5l-169 -169q-103 102 -187 102z" />
    <glyph glyph-name="t" unicode="t" horiz-adv-x="614" 
d="M171 1489h272v-401h162v-235h-162v-853h-272v853h-140v235h140v401z" />
    <glyph glyph-name="u" unicode="u" 
d="M137 1088h276v-524q0 -153 32.5 -245.5t171 -92.5t185.5 128q17 47 17 201v533h274v-461q0 -285 -50 -401t-157 -185t-279 -69t-282.5 80t-155.5 223q-32 99 -32 360v453z" />
    <glyph glyph-name="v" unicode="v" horiz-adv-x="1147" 
d="M21 1088h278l275 -642l274 642h277l-463 -1088h-177z" />
    <glyph glyph-name="w" unicode="w" horiz-adv-x="1638" 
d="M17 1088h267l219 -619l236 619h163l231 -612l219 612h269l-397 -1088h-173l-232 620l-239 -620h-171z" />
    <glyph glyph-name="x" unicode="x" horiz-adv-x="1147" 
d="M40 1088h317l213 -297l216 297h314l-372 -515l418 -573h-317l-259 357l-256 -357h-313l412 573z" />
    <glyph glyph-name="y" unicode="y" horiz-adv-x="1188" 
d="M17 1088h279l283 -683l312 683h280l-682 -1486h-282l224 479z" />
    <glyph glyph-name="z" unicode="z" horiz-adv-x="942" 
d="M91 1088h835l-490 -857h462v-231h-882l492 857h-417v231z" />
    <glyph glyph-name="braceleft" unicode="{" horiz-adv-x="696" 
d="M232 1006q0 178 18 250t83 143.5t311 71.5h53v-240q-107 0 -140 -11.5t-48.5 -37.5t-15.5 -124t-10 -226t-51 -198t-127 -125q147 -84 173 -270q6 -43 12 -205t16 -188t45.5 -42t145.5 -16v-239h-53q-145 0 -215 23.5t-114 69t-63.5 115t-19.5 249.5t-20.5 246.5
t-64 99.5t-134.5 38v240q89 4 131.5 35t65 97t22.5 244z" />
    <glyph glyph-name="bar" unicode="|" 
d="M536 1508h158v-1906h-158v1906z" />
    <glyph glyph-name="braceright" unicode="}" horiz-adv-x="696" 
d="M463 14q0 -178 -17.5 -250t-82.5 -143.5t-311 -71.5h-53v239q107 0 139.5 11.5t48.5 38t16 124.5q-1 98 9 226t52 198t127 124q-147 85 -173 271q-6 43 -12 205t-16 188q-11 26 -46.5 41.5t-144.5 15.5v240h53q145 0 214.5 -24t114 -69.5t64 -115t19.5 -249.5t20.5 -246
t63.5 -99t135 -38v-240q-89 -5 -131.5 -35.5t-65.5 -96.5t-23 -244z" />
    <glyph glyph-name="asciitilde" unicode="~" 
d="M333 957q81 0 157.5 -21.5t181.5 -72.5q106 -51 136 -59t64 -9q111 0 258 113v-322q-126 -72 -247 -72q-66 0 -132.5 18t-190.5 72t-156 63t-74 9q-88 0 -230 -112v319q152 74 233 74z" />
    <glyph glyph-name="nbspace" unicode="&#xa0;" horiz-adv-x="573" 
 />
    <glyph glyph-name="exclamdown" unicode="&#xa1;" horiz-adv-x="573" 
d="M424 -398h-275v1075h275v-1075zM286 1138q71 0 121.5 -50t50.5 -121t-50.5 -121t-121.5 -50t-121 50t-50 121t50 121t121 50z" />
    <glyph glyph-name="cent" unicode="&#xa2;" horiz-adv-x="1147" 
d="M355 540q0 -98 38 -183l226 513q-123 -7 -193.5 -92t-70.5 -238zM84 545q0 168 70 298t195 201.5t280 71.5q43 0 96 -8l96 218l155 -67l-94 -210q110 -69 169 -164l-223 -132q-23 31 -52 59l-255 -577q55 -21 107 -21q125 0 221 98l175 -170q-166 -170 -415 -170
q-95 0 -190 28l-111 -243l-153 66l120 264q-191 188 -191 458z" />
    <glyph glyph-name="sterling" unicode="&#xa3;" horiz-adv-x="1147" 
d="M586 1251q-61 0 -102 -43.5t-41 -99.5t28 -128l31 -81h340v-252h-267q12 -69 12 -109q0 -115 -68 -283q39 -5 106 -17t99 -12t65 30t47 80h259q-4 -99 -57 -186.5t-142 -137t-186 -49.5q-43 1 -170 19t-214 18t-183 -34l-94 238q85 34 159 44q95 166 95 288q0 58 -9 111
h-240v252h154q-47 99 -47 211t49.5 200.5t153.5 143t225 54.5t219.5 -53t150.5 -146.5t53 -212.5h-281q-31 155 -145 155z" />
    <glyph glyph-name="currency" unicode="&#xa4;" 
d="M303 818q0 -134 92.5 -227t221.5 -93t221 93t92 227t-91.5 227.5t-220.5 93.5t-222 -93.5t-93 -227.5zM107 818q0 162 94 292l-106 104l121 124l106 -106q139 97 293 97q155 0 294 -94l105 103l119 -124l-104 -101q98 -133 98 -292t-95 -292l104 -104l-119 -121l-105 103
q-138 -100 -296 -100t-295 100l-105 -103l-120 121l103 104q-52 79 -72 145t-20 144z" />
    <glyph glyph-name="yen" unicode="&#xa5;" horiz-adv-x="1147" 
d="M1053 779v-163h-338v-128h338v-169h-338v-319h-283v319h-339v169h339v128h-339v163h265l-310 692h291l235 -523l235 523h291l-311 -692h264z" />
    <glyph glyph-name="brokenbar" unicode="&#xa6;" 
d="M537 -398v910l158 55v-965h-158zM537 1508h158v-709l-158 -55v764z" />
    <glyph glyph-name="section" unicode="&#xa7;" horiz-adv-x="1147" 
d="M342 643q0 -47 32 -85t133 -109l153 -107q80 38 106 72t26 76t-30.5 82t-136.5 112l-162 112q-121 -53 -121 -153zM168 1182q0 154 111 254t284 100t292 -111t130 -273h-265q-30 133 -161 133q-53 0 -82 -23.5t-29 -58.5t27 -69t141 -111l191 -131q129 -88 178 -171
t49 -185t-55.5 -183.5t-158.5 -121.5q93 -77 131.5 -153t38.5 -167q0 -144 -108 -240.5t-292 -96.5t-290.5 96.5t-131.5 281.5h259q27 -70 65 -99t96 -29t92 30t34 63t-20 62q-21 28 -89 76l-276 192q-129 91 -175.5 171t-46.5 188t56.5 193t142.5 117q-138 112 -138 266z
" />
    <glyph glyph-name="dieresis" unicode="&#xa8;" horiz-adv-x="1024" 
d="M734 1573q60 0 101.5 -41.5t41.5 -101.5t-41.5 -102t-101.5 -42t-102 42t-42 102t42 101.5t102 41.5zM290 1573q60 0 102 -41.5t42 -101.5t-42 -102t-102 -42t-101.5 42t-41.5 102t41.5 101.5t101.5 41.5z" />
    <glyph glyph-name="copyright" unicode="&#xa9;" horiz-adv-x="1515" 
d="M790 315q-188 0 -308.5 126.5t-120.5 325.5t119 321t304 122q149 0 245 -75t127 -218h-176q-17 74 -68 114t-126 40q-111 0 -183 -80.5t-72 -220.5t76.5 -227.5t182.5 -87.5q75 0 128 45t62 116h176q-17 -131 -118 -216t-248 -85zM1366 754q0 253 -177.5 430.5
t-429.5 177.5q-164 0 -305.5 -81t-222.5 -221.5t-81 -301.5t81 -300.5t223 -220.5t304 -81t304 81t223 219.5t81 297.5zM1524 756q0 -204 -102.5 -381.5t-280.5 -280t-383 -102.5t-383 102.5t-280.5 280t-102.5 381.5t102.5 381.5t280 280t383.5 102.5t383.5 -102.5
t280 -280t102.5 -381.5z" />
    <glyph glyph-name="ordfeminine" unicode="&#xaa;" horiz-adv-x="737" 
d="M356 1329q-44 0 -76 -46.5t-32 -130.5t33 -132t76 -48t76 47t33 133t-33 131.5t-77 45.5zM295 1508q94 0 164 -75v58h200v-681h-200v56q-65 -72 -159 -72t-173.5 98t-79.5 260t77 259t171 97z" />
    <glyph glyph-name="guillemotleft" unicode="&#xab;" horiz-adv-x="942" 
d="M662 1088h255l-185 -548l185 -540h-255l-184 540zM208 1088h255l-185 -548l185 -540h-255l-183 540z" />
    <glyph glyph-name="logicalnot" unicode="&#xac;" 
d="M115 1074h999v-678l-249 1v428l-750 -1v250z" />
    <glyph glyph-name="registered" unicode="&#xae;" horiz-adv-x="1515" 
d="M625 1012v-199h154q89 0 118 24t29 77t-28.5 75.5t-117.5 22.5h-155zM441 1173h371q117 0 172 -26t88.5 -82t33.5 -129t-20.5 -115.5t-77.5 -83.5q46 -26 63 -58.5t23 -151.5t12 -144.5t35 -48.5h-210q-22 52 -24 150q-2 97 -11 123t-31.5 39t-90.5 13h-149v-325h-184
v839zM1366 753q0 254 -177.5 431.5t-429.5 177.5t-430.5 -177t-178.5 -427q0 -162 80.5 -301t223 -220t304.5 -81t304 80.5t223 219t81 297.5zM1524 756q0 -206 -102.5 -382.5t-280 -279t-383.5 -102.5t-383.5 102.5t-280 279t-102.5 382.5t102.5 382.5t280 279t383.5 102.5
t383.5 -102.5t280 -279t102.5 -382.5z" />
    <glyph glyph-name="overscore" unicode="&#xaf;" horiz-adv-x="1024" 
d="M-12 1685h1048v-102h-1048v102z" />
    <glyph glyph-name="degree" unicode="&#xb0;" horiz-adv-x="819" 
d="M636 1164q0 97 -65 164t-159 67t-161 -67.5t-67 -162.5t68 -164t160 -69t158 67.5t66 164.5zM755 1164q0 -144 -101 -244t-245 -100t-244 100t-100 244t102.5 244t244.5 100t242.5 -100t100.5 -244z" />
    <glyph glyph-name="plusminus" unicode="&#xb1;" horiz-adv-x="1124" 
d="M62 250h999v-250h-999v250zM437 1079v375h250v-375h374v-250h-374v-374h-250v374h-375v250h375z" />
    <glyph glyph-name="twosuperior" unicode="&#xb2;" horiz-adv-x="688" 
d="M352 1508q140 0 212.5 -74t72.5 -148t-44 -151.5t-164 -182.5l-70 -62h285v-157h-625v88l272 232q97 83 127 130t30 83t-29 60t-79 24t-81 -32t-32 -91h-185q6 132 88 206.5t222 74.5z" />
    <glyph glyph-name="threesuperior" unicode="&#xb3;" horiz-adv-x="688" 
d="M268 1204q154 0 154 82q0 28 -20.5 47.5t-54.5 19.5q-67 0 -103 -71h-183q23 108 79 157q78 69 198 69t194 -60.5t74 -148.5t-93 -141q66 -27 103.5 -79.5t37.5 -112.5q0 -101 -88 -176t-229 -75t-222.5 73t-84.5 193h184q19 -111 126 -111q55 0 90 27.5t35 63.5
q0 99 -197 105v138z" />
    <glyph glyph-name="acute" unicode="&#xb4;" horiz-adv-x="860" 
d="M478 1679h323l-366 -392h-196z" />
    <glyph glyph-name="mu1" unicode="&#xb5;" horiz-adv-x="1180" 
d="M365 -398h-277v1486h277v-571q0 -127 24.5 -183.5t81 -93.5t121.5 -37t115.5 34t77 98t26.5 190v563h280v-1088h-280v127q-80 -156 -222 -156t-224 148v-517z" />
    <glyph glyph-name="paragraph" unicode="&#xb6;" 
d="M552 -379v1089q-184 1 -286.5 105t-102.5 298t111.5 297t361.5 103h420v-116h-82v-1776h-139v1776h-144v-1776h-139z" />
    <glyph glyph-name="middot" unicode="&#xb7;" horiz-adv-x="682" 
d="M696 897q60 0 102 -41.5t42 -101.5t-42 -101.5t-102 -41.5t-101.5 41.5t-41.5 101.5t41.5 101.5t101.5 41.5z" />
    <glyph glyph-name="cedilla" unicode="&#xb8;" horiz-adv-x="696" 
d="M362 -158q0 56 -79 56l-56 -2l35 120h169l-12 -46q67 -15 105.5 -58.5t38.5 -95.5q0 -81 -67.5 -139t-177.5 -58t-234 46l36 129q72 -23 132 -23q110 0 110 71z" />
    <glyph glyph-name="onesuperior" unicode="&#xb9;" horiz-adv-x="688" 
d="M464 1489v-756h-188v599h-193l116 157h265z" />
    <glyph glyph-name="ordmasculine" unicode="&#xba;" horiz-adv-x="737" 
d="M369 1326q-50 0 -86 -47t-36 -129t35.5 -129t85.5 -47t86.5 47t36.5 129t-36 129t-86 47zM368 1508q131 0 228 -102t97 -256t-95.5 -255t-229.5 -101t-228.5 102t-94.5 254t96 255t227 103z" />
    <glyph glyph-name="guillemotright" unicode="&#xbb;" horiz-adv-x="942" 
d="M280 0h-255l185 548l-185 540h255l183 -540zM733 0h-255l186 548l-186 540h255l184 -540z" />
    <glyph glyph-name="onequarter" unicode="&#xbc;" horiz-adv-x="1720" 
d="M472 1489v-756h-188v599h-193l116 157h265zM462 -37l626 1545h171l-626 -1545h-171zM1437 290v269l-217 -269h217zM1606 775v-485h78v-140h-78v-150h-169v150h-395v148l382 477h182z" />
    <glyph glyph-name="onehalf" unicode="&#xbd;" horiz-adv-x="1720" 
d="M472 1489v-756h-188v599h-193l116 157h265zM426 -37l626 1545h171l-626 -1545h-171zM1376 775q140 0 212 -74q72 -75 73 -149q0 -74 -44 -151t-164 -182l-70 -62h285v-157h-625v88l272 232q97 83 127 130q30 48 30 84t-28 60t-80 23q-50 0 -81 -32t-32 -91h-185
q6 132 88 206t222 75z" />
    <glyph glyph-name="threequarters" unicode="&#xbe;" horiz-adv-x="1720" 
d="M276 1204q154 0 154 82q0 28 -20 48t-55 19q-67 0 -103 -71h-183q23 108 79 157q78 69 198 69t194 -60t74 -149q0 -88 -93 -141q65 -28 103 -80t38 -112q0 -101 -88 -176t-229 -75t-223 73t-84 193h184q19 -111 126 -111q55 0 90 28t35 63q0 99 -197 105v138zM486 -37
l626 1545h171l-626 -1545h-171zM1437 290v269l-217 -269h217zM1606 775v-485h78v-140h-78v-150h-169v150h-395v148l382 477h182z" />
    <glyph glyph-name="questiondown" unicode="&#xbf;" horiz-adv-x="1147" 
d="M556 -426q-278 0 -368 150t-90 263t78 228q26 35 114 116t124 132t43 218h270l2 -45q0 -267 -208 -449q-106 -93 -128 -128.5t-22 -90.5t52.5 -99.5t144.5 -44.5t151 54.5t60 139.5h262q2 -192 -132 -318t-353 -126zM587 795q-72 0 -123.5 50t-51.5 121t51 121.5
t123 50.5t122.5 -50.5t50.5 -121.5t-50 -121t-122 -50z" />
    <glyph glyph-name="Agrave" unicode="&#xc0;" horiz-adv-x="1515" 
d="M760 1081l-196 -505h391zM616 1471h284l566 -1471h-291l-115 303h-600l-120 -303h-291zM709 1977l239 -392h-196l-366 392h323z" />
    <glyph glyph-name="Aacute" unicode="&#xc1;" horiz-adv-x="1515" 
d="M760 1081l-196 -505h391zM616 1471h284l566 -1471h-291l-115 303h-600l-120 -303h-291zM805 1977h323l-366 -392h-196z" />
    <glyph glyph-name="Acircumflex" unicode="&#xc2;" horiz-adv-x="1515" 
d="M760 1081l-196 -505h391zM616 1471h284l566 -1471h-291l-115 303h-600l-120 -303h-291zM349 1585l300 283h219l298 -283h-298l-108 131l-111 -131h-300z" />
    <glyph glyph-name="Atilde" unicode="&#xc3;" horiz-adv-x="1515" 
d="M760 1081l-196 -505h391zM616 1471h284l566 -1471h-291l-115 303h-600l-120 -303h-291zM600 1853q49 0 149 -28t166 -28t156 52l104 -156q-126 -108 -244 -108q-63 0 -143 24t-102 28t-59 4q-88 0 -176 -52l-110 165q128 99 259 99z" />
    <glyph glyph-name="Adieresis" unicode="&#xc4;" horiz-adv-x="1515" 
d="M760 1081l-196 -505h391zM616 1471h284l566 -1471h-291l-115 303h-600l-120 -303h-291zM978 1871q60 0 102 -42q42 -41 42 -101t-42 -102t-102 -42t-101 42q-42 42 -42 102t42 101q41 42 101 42zM536 1871q60 0 101 -42q42 -41 42 -101t-42 -102q-41 -42 -101 -42
t-102 42t-42 102t42 101q42 42 102 42z" />
    <glyph glyph-name="Aring" unicode="&#xc5;" horiz-adv-x="1515" 
d="M760 1081l-196 -505h391zM616 1471h284l566 -1471h-291l-115 303h-600l-120 -303h-291zM757 1903q-34 0 -58 -26q-24 -25 -24 -63q1 -38 25 -64t57 -26t57 26t25 64q0 38 -24 63q-24 26 -58 26zM757 2032q91 0 155 -66t64 -158t-64 -158t-155 -65q-91 -1 -155 65t-64 158
t64 158t155 66z" />
    <glyph glyph-name="AE" unicode="&#xc6;" horiz-adv-x="1843" 
d="M941 579v644l-317 -644h317zM1737 1471v-274h-517v-267h517v-269h-517v-387h517v-274h-796v304h-449l-147 -304h-288l717 1471h963z" />
    <glyph glyph-name="Ccedilla" unicode="&#xc7;" horiz-adv-x="1597" 
d="M813 -158q0 56 -79 56l-56 -2l24 82q-228 42 -388 202q-218 218 -219 558q-1 220 99 391t286 275t383 104q199 0 367 -77t290 -219l-196 -187q-200 211 -450 211q-212 0 -356 -144t-144 -355q0 -147 64 -261t181 -179t249 -65t234 46q101 46 222 165l190 -198
q-163 -159 -304 -219t-315 -63q50 -17 84 -56q35 -39 35 -91q0 -81 -68 -139t-178 -58t-233 46l36 129q72 -23 132 -23q110 0 110 71z" />
    <glyph glyph-name="Egrave" unicode="&#xc8;" horiz-adv-x="1065" 
d="M169 1471h803v-274h-525v-266h525v-269h-525v-387h525v-275h-803v1471zM520 1977l239 -392h-196l-366 392h323z" />
    <glyph glyph-name="Eacute" unicode="&#xc9;" horiz-adv-x="1065" 
d="M169 1471h803v-274h-525v-266h525v-269h-525v-387h525v-275h-803v1471zM617 1977h323l-366 -392h-196z" />
    <glyph glyph-name="Ecircumflex" unicode="&#xca;" horiz-adv-x="1065" 
d="M169 1471h803v-274h-525v-266h525v-269h-525v-387h525v-275h-803v1471zM160 1585l300 283h219l298 -283h-298l-108 131l-111 -131h-300z" />
    <glyph glyph-name="Edieresis" unicode="&#xcb;" horiz-adv-x="1065" 
d="M169 1471h803v-274h-525v-266h525v-269h-525v-387h525v-275h-803v1471zM790 1871q60 0 102 -42q42 -41 42 -101t-42 -102t-102 -42t-101 42q-42 42 -42 102t42 101q41 42 101 42zM348 1871q60 0 101 -42q42 -41 42 -101t-42 -102q-41 -42 -101 -42t-102 42t-42 102
t42 101q42 42 102 42z" />
    <glyph glyph-name="Igrave" unicode="&#xcc;" horiz-adv-x="573" 
d="M148 1471h278v-1471h-278v1471zM239 1977l239 -392h-196l-366 392h323z" />
    <glyph glyph-name="Iacute" unicode="&#xcd;" horiz-adv-x="573" 
d="M148 1471h278v-1471h-278v1471zM335 1977h323l-366 -392h-196z" />
    <glyph glyph-name="Icircumflex" unicode="&#xce;" horiz-adv-x="573" 
d="M148 1471h278v-1471h-278v1471zM-122 1585l300 283h219l298 -283h-298l-108 131l-111 -131h-300z" />
    <glyph glyph-name="Idieresis" unicode="&#xcf;" horiz-adv-x="573" 
d="M148 1471h278v-1471h-278v1471zM508 1871q60 0 102 -42q42 -41 42 -101t-42 -102t-102 -42t-101 42q-42 42 -42 102t42 101q41 42 101 42zM66 1871q60 0 101 -42q42 -41 42 -101t-42 -102q-41 -42 -101 -42t-102 42t-42 102t42 101q42 42 102 42z" />
    <glyph glyph-name="Eth" unicode="&#xd0;" horiz-adv-x="1520" 
d="M498 1201v-384h302v-163h-302v-380h154q192 0 278.5 44t141.5 148t55 256q0 479 -510 479h-119zM219 1471h357q320 0 476 -79.5t257 -258.5t101 -418q0 -170 -56.5 -312.5t-156 -236.5t-215.5 -130t-402 -36h-361v654h-169v163h169v654z" />
    <glyph glyph-name="Ntilde" unicode="&#xd1;" horiz-adv-x="1515" 
d="M169 1471h268l631 -968v968h280v-1471h-269l-630 965v-965h-280v1471zM601 1853q49 0 149 -28t166 -28t156 52l104 -156q-126 -108 -244 -108q-63 0 -143 24q-81 24 -103 28t-58 4q-88 0 -176 -52l-110 165q128 99 259 99z" />
    <glyph glyph-name="Ograve" unicode="&#xd2;" horiz-adv-x="1720" 
d="M859 1234q-203 0 -342 -142t-139 -374t175 -373q135 -111 323 -111t328 144t140 354t-141 356t-344 146zM863 1508q313 0 537 -226t224 -550t-222 -546q-222 -223 -544 -223q-324 0 -543 229t-219 544q0 211 102 388q102 176 280 280t385 104zM812 1977l239 -392h-196
l-366 392h323z" />
    <glyph glyph-name="Oacute" unicode="&#xd3;" horiz-adv-x="1720" 
d="M859 1234q-203 0 -342 -142t-139 -374t175 -373q135 -111 323 -111t328 144t140 354t-141 356t-344 146zM863 1508q313 0 537 -226t224 -550t-222 -546q-222 -223 -544 -223q-324 0 -543 229t-219 544q0 211 102 388q102 176 280 280t385 104zM908 1977h323l-366 -392
h-196z" />
    <glyph glyph-name="Ocircumflex" unicode="&#xd4;" horiz-adv-x="1720" 
d="M859 1234q-203 0 -342 -142t-139 -374t175 -373q135 -111 323 -111t328 144t140 354t-141 356t-344 146zM863 1508q313 0 537 -226t224 -550t-222 -546q-222 -223 -544 -223q-324 0 -543 229t-219 544q0 211 102 388q102 176 280 280t385 104zM451 1585l300 283h219
l298 -283h-298l-108 131l-111 -131h-300z" />
    <glyph glyph-name="Otilde" unicode="&#xd5;" horiz-adv-x="1720" 
d="M859 1234q-203 0 -342 -142t-139 -374t175 -373q135 -111 323 -111t328 144t140 354t-141 356t-344 146zM863 1508q313 0 537 -226t224 -550t-222 -546q-222 -223 -544 -223q-324 0 -543 229t-219 544q0 211 102 388q102 176 280 280t385 104zM702 1853q49 0 149 -28
t166 -28t156 52l104 -156q-126 -108 -244 -108q-63 0 -143 24t-102 28t-59 4q-88 0 -176 -52l-110 165q128 99 259 99z" />
    <glyph glyph-name="Odieresis" unicode="&#xd6;" horiz-adv-x="1720" 
d="M859 1234q-203 0 -342 -142t-139 -374t175 -373q135 -111 323 -111t328 144t140 354t-141 356t-344 146zM863 1508q313 0 537 -226t224 -550t-222 -546q-222 -223 -544 -223q-324 0 -543 229t-219 544q0 211 102 388q102 176 280 280t385 104zM1082 1871q60 0 101 -42
q42 -41 42 -101t-42 -102q-41 -42 -101 -42t-102 42t-42 102t42 101q42 42 102 42zM638 1871q60 0 102 -42q42 -41 42 -101t-42 -102t-102 -42t-101 42q-42 42 -42 102t42 101q41 42 101 42z" />
    <glyph glyph-name="multiply" unicode="&#xd7;" 
d="M613 588l-317 -316l-148 147l317 317l-317 317l148 148l317 -317l316 317l148 -148l-317 -317l317 -317l-148 -147z" />
    <glyph glyph-name="Oslash" unicode="&#xd8;" horiz-adv-x="1720" 
d="M867 234q198 0 338 144t140 355q0 169 -100 305l-625 -738q112 -66 247 -66zM862 1234q-205 0 -344 -142t-139 -348t114 -339l636 749q-113 80 -267 80zM1625 720q0 -312 -221.5 -534.5t-536.5 -222.5q-239 0 -426 125l-171 -202l-127 106l171 202q-103 105 -160 246
t-57 296q0 211 102 387.5t280.5 280.5t400.5 104t426 -145l161 190l126 -104l-164 -198q196 -219 196 -531z" />
    <glyph glyph-name="Ugrave" unicode="&#xd9;" horiz-adv-x="1311" 
d="M158 1471h281v-952q-1 -123 21 -174t72 -81t121 -31q71 0 125 34q54 35 74 87t21 200v917h281v-877q0 -222 -25 -308t-95 -166q-138 -157 -377 -157q-161 -1 -279 73t-169 184t-51 374v877zM607 1977l239 -392h-196l-366 392h323z" />
    <glyph glyph-name="Uacute" unicode="&#xda;" horiz-adv-x="1311" 
d="M158 1471h281v-952q-1 -123 21 -174t72 -81t121 -31q71 0 125 34q54 35 74 87t21 200v917h281v-877q0 -222 -25 -308t-95 -166q-138 -157 -377 -157q-161 -1 -279 73t-169 184t-51 374v877zM703 1977h323l-366 -392h-196z" />
    <glyph glyph-name="Ucircumflex" unicode="&#xdb;" horiz-adv-x="1311" 
d="M158 1471h281v-952q-1 -123 21 -174t72 -81t121 -31q71 0 125 34q54 35 74 87t21 200v917h281v-877q0 -222 -25 -308t-95 -166q-138 -157 -377 -157q-161 -1 -279 73t-169 184t-51 374v877zM247 1585l300 283h219l298 -283h-298l-108 131l-111 -131h-300z" />
    <glyph glyph-name="Udieresis" unicode="&#xdc;" horiz-adv-x="1311" 
d="M158 1471h281v-952q-1 -123 21 -174t72 -81t121 -31q71 0 125 34q54 35 74 87t21 200v917h281v-877q0 -222 -25 -308t-95 -166q-138 -157 -377 -157q-161 -1 -279 73t-169 184t-51 374v877zM878 1871q60 0 101 -42q42 -41 42 -101t-42 -102q-41 -42 -101 -42t-102 42
t-42 102t42 101q42 42 102 42zM434 1871q60 0 102 -42q42 -41 42 -101t-42 -102t-102 -42t-101 42q-42 42 -42 102t42 101q41 42 101 42z" />
    <glyph glyph-name="Yacute" unicode="&#xdd;" horiz-adv-x="1270" 
d="M777 0h-282v637l-432 834h301l274 -528l272 528h297l-430 -834v-637zM683 1977h323l-366 -392h-196z" />
    <glyph glyph-name="Thorn" unicode="&#xde;" horiz-adv-x="1147" 
d="M447 584h89q105 0 169.5 23.5t64.5 116.5t-66 133q-48 29 -178 29h-79v-302zM167 1471h280v-312q256 0 362.5 -43.5t169 -142.5t62.5 -247t-80.5 -249.5t-218.5 -141.5q-81 -24 -295 -24v-311h-280v1471z" />
    <glyph glyph-name="germandbls" unicode="&#xdf;" 
d="M579 949q103 0 163 48.5t60 120.5t-47 118.5t-115 46.5t-124.5 -41t-81 -110t-24.5 -237v-895h-273v895q0 244 58 369t176.5 198.5t292.5 73.5t294 -109.5t120 -264.5q0 -85 -37 -156t-100.5 -114.5t-172.5 -62.5q235 -41 304 -176t69 -251t-56.5 -217t-158.5 -157
t-208 -56t-188 34v255q62 -33 140 -33t139.5 64t61.5 146t-55 171t-237 96v244z" />
    <glyph glyph-name="agrave" unicode="&#xe0;" horiz-adv-x="1352" 
d="M656 864q-128 0 -212 -90t-84 -230t86 -231t212 -91q127 0 212 90t85 232q0 144 -85 232q-86 88 -214 88zM591 1116q205 0 351 -148v120h272v-1088h-272v115q-151 -143 -348 -143q-198 0 -352 164t-154 410q0 248 149 409t354 161zM628 1679l239 -392h-196l-366 392h323z
" />
    <glyph glyph-name="aacute" unicode="&#xe1;" horiz-adv-x="1352" 
d="M656 864q-128 0 -212 -90t-84 -230t86 -231t212 -91q127 0 212 90t85 232q0 144 -85 232q-86 88 -214 88zM591 1116q205 0 351 -148v120h272v-1088h-272v115q-151 -143 -348 -143q-198 0 -352 164t-154 410q0 248 149 409t354 161zM724 1679h323l-366 -392h-196z" />
    <glyph glyph-name="acircumflex" unicode="&#xe2;" horiz-adv-x="1352" 
d="M656 864q-128 0 -212 -90t-84 -230t86 -231t212 -91q127 0 212 90t85 232q0 144 -85 232q-86 88 -214 88zM591 1116q205 0 351 -148v120h272v-1088h-272v115q-151 -143 -348 -143q-198 0 -352 164t-154 410q0 248 149 409t354 161zM267 1287l300 283h219l298 -283h-298
l-108 131l-111 -131h-300z" />
    <glyph glyph-name="atilde" unicode="&#xe3;" horiz-adv-x="1352" 
d="M656 864q-128 0 -212 -90t-84 -230t86 -231t212 -91q127 0 212 90t85 232q0 144 -85 232q-86 88 -214 88zM591 1116q205 0 351 -148v120h272v-1088h-272v115q-151 -143 -348 -143q-198 0 -352 164t-154 410q0 248 149 409t354 161zM518 1555q49 0 149 -28t166 -28t156 52
l104 -156q-126 -108 -244 -108q-63 0 -143 24t-102 28t-59 4q-88 0 -176 -52l-110 165q128 99 259 99z" />
    <glyph glyph-name="adieresis" unicode="&#xe4;" horiz-adv-x="1352" 
d="M656 864q-128 0 -212 -90t-84 -230t86 -231t212 -91q127 0 212 90t85 232q0 144 -85 232q-86 88 -214 88zM591 1116q205 0 351 -148v120h272v-1088h-272v115q-151 -143 -348 -143q-198 0 -352 164t-154 410q0 248 149 409t354 161zM898 1573q60 0 101 -42q42 -41 42 -101
t-42 -102q-41 -42 -101 -42t-102 42t-42 102t42 101q42 42 102 42zM454 1573q60 0 102 -42q42 -41 42 -101t-42 -102t-102 -42t-101 42q-42 42 -42 102t42 101q41 42 101 42z" />
    <glyph glyph-name="aring" unicode="&#xe5;" horiz-adv-x="1352" 
d="M656 864q-128 0 -212 -90t-84 -230t86 -231t212 -91q127 0 212 90t85 232q0 144 -85 232q-86 88 -214 88zM591 1116q205 0 351 -148v120h272v-1088h-272v115q-151 -143 -348 -143q-198 0 -352 164t-154 410q0 248 149 409t354 161zM676 1605q-34 0 -58 -26
q-24 -25 -24 -63t24 -64t58 -26t58 26t24 64t-24 63q-24 26 -58 26zM676 1734q91 0 155 -66t64 -158q-1 -92 -65 -158t-154 -65q-90 -1 -154 65t-65 158q0 92 64 158t155 66z" />
    <glyph glyph-name="ae" unicode="&#xe6;" horiz-adv-x="2212" 
d="M682 868q-134 0 -224.5 -92.5t-90.5 -232.5t88.5 -231t226.5 -91t225 89.5t87 233.5t-89 234t-223 90zM1573 883q-109 0 -188 -53t-116 -154h591q-25 93 -101.5 150t-185.5 57zM629 1116q221 0 363 -170v142h251v-80q136 108 308 108t305 -76.5t205.5 -211.5t72.5 -303
l-2 -62h-876q24 -119 106 -186.5t212 -67.5q75 0 134.5 25t121.5 85l230 -108q-104 -152 -242 -195.5t-246 -43.5q-200 0 -329 106v-78h-251v138q-79 -89 -164 -127.5t-196 -38.5q-231 0 -387 162t-156 405t159.5 410t380.5 167z" />
    <glyph glyph-name="ccedilla" unicode="&#xe7;" horiz-adv-x="1311" 
d="M670 -158q0 56 -79 56l-56 -2l25 87q-190 32 -312 159q-162 170 -163 398q0 158 79 291q78 133 220 209t310 76q338 0 509 -248l-227 -125q-64 67 -126 93t-147 26q-153 0 -247 -92t-95 -232q0 -141 91 -229t239 -88q183 0 285 125l215 -147q-166 -216 -463 -226l-1 -3
q67 -14 105 -58t39 -96q0 -81 -68 -139q-67 -58 -177 -58t-234 46l36 129q72 -23 132 -23q110 0 110 71z" />
    <glyph glyph-name="egrave" unicode="&#xe8;" horiz-adv-x="1311" 
d="M658 885q-110 0 -195 -64q-54 -40 -100 -141h591q-26 91 -106 148t-190 57zM87 541q1 247 161 411t410 164t410 -164q161 -164 161 -435l-1 -52h-877q19 -117 101 -185t224 -68q140 0 250 107l230 -108q-168 -239 -491 -239q-256 0 -417 162t-161 407zM607 1679l239 -392
h-196l-366 392h323z" />
    <glyph glyph-name="eacute" unicode="&#xe9;" horiz-adv-x="1311" 
d="M658 885q-110 0 -195 -64q-54 -40 -100 -141h591q-26 91 -106 148t-190 57zM87 541q1 247 161 411t410 164t410 -164q161 -164 161 -435l-1 -52h-877q19 -117 101 -185t224 -68q140 0 250 107l230 -108q-168 -239 -491 -239q-256 0 -417 162t-161 407zM703 1679h323
l-366 -392h-196z" />
    <glyph glyph-name="ecircumflex" unicode="&#xea;" horiz-adv-x="1311" 
d="M658 885q-110 0 -195 -64q-54 -40 -100 -141h591q-26 91 -106 148t-190 57zM87 541q1 247 161 411t410 164t410 -164q161 -164 161 -435l-1 -52h-877q19 -117 101 -185t224 -68q140 0 250 107l230 -108q-168 -239 -491 -239q-256 0 -417 162t-161 407zM247 1287l300 283
h219l298 -283h-298l-108 131l-111 -131h-300z" />
    <glyph glyph-name="edieresis" unicode="&#xeb;" horiz-adv-x="1311" 
d="M658 885q-110 0 -195 -64q-54 -40 -100 -141h591q-26 91 -106 148t-190 57zM87 541q1 247 161 411t410 164t410 -164q161 -164 161 -435l-1 -52h-877q19 -117 101 -185t224 -68q140 0 250 107l230 -108q-168 -239 -491 -239q-256 0 -417 162t-161 407zM878 1573
q60 0 101 -42q42 -41 42 -101t-42 -102q-41 -42 -101 -42t-102 42t-42 102t42 101q42 42 102 42zM434 1573q60 0 102 -42q42 -41 42 -101t-42 -102t-102 -42t-101 42q-42 42 -42 102t42 101q41 42 101 42z" />
    <glyph glyph-name="igrave" unicode="&#xec;" horiz-adv-x="491" 
d="M108 1088h274v-1088h-274v1088zM198 1679l239 -392h-196l-366 392h323z" />
    <glyph glyph-name="iacute" unicode="&#xed;" horiz-adv-x="491" 
d="M108 1088h274v-1088h-274v1088zM294 1679h323l-366 -392h-196z" />
    <glyph glyph-name="icircumflex" unicode="&#xee;" horiz-adv-x="491" 
d="M108 1088h274v-1088h-274v1088zM-163 1287l300 283h219l298 -283h-298l-108 131l-111 -131h-300z" />
    <glyph glyph-name="idieresis" unicode="&#xef;" horiz-adv-x="491" 
d="M108 1088h274v-1088h-274v1088zM468 1573q60 0 101 -42q42 -41 42 -101t-42 -102q-41 -42 -101 -42t-102 42t-42 102t42 101q42 42 102 42zM24 1573q60 0 102 -42q42 -41 42 -101t-42 -102t-102 -42t-101 42q-42 42 -42 102t42 101q41 42 101 42z" />
    <glyph glyph-name="eth" unicode="&#xf0;" horiz-adv-x="1311" 
d="M657 858q-129 0 -213 -87t-84 -228t83 -229t211 -88t214 89t86 227t-84 227t-213 89zM1232 582q0 -267 -167 -438.5t-407 -171.5t-405.5 167t-165.5 412t186 418q158 147 352 147q63 0 128 -28q-27 64 -104 159l-265 -82l-51 159l192 61q-96 89 -141 123h265l82 -60
l199 60l50 -157l-104 -34q172 -159 264 -351t92 -384z" />
    <glyph glyph-name="ntilde" unicode="&#xf1;" 
d="M138 1088h272v-111q92 79 168 109t155 30q162 0 275 -113q95 -96 95 -284v-719h-270v477q1 195 -17 259q-36 131 -169 131q-83 1 -143 -55t-82 -154q-12 -51 -12 -221v-437h-272v1088zM457 1555q49 0 149 -28t166 -28t156 52l104 -156q-126 -108 -244 -108q-63 0 -143 24
q-81 24 -103 28t-58 4q-88 0 -176 -52l-110 165q128 99 259 99z" />
    <glyph glyph-name="ograve" unicode="&#xf2;" horiz-adv-x="1311" 
d="M654 859q-128 -1 -212 -89t-85 -228t83 -228t212 -88t213 89t85 229t-84 228t-212 87zM649 1116q153 0 289 -77t212 -209t76 -286t-76 -287t-209 -209q-132 -76 -291 -76q-234 0 -400 166t-165 414q-1 246 175 405t389 159zM607 1679l239 -392h-196l-366 392h323z" />
    <glyph glyph-name="oacute" unicode="&#xf3;" horiz-adv-x="1311" 
d="M654 859q-128 -1 -212 -89t-85 -228t83 -228t212 -88t213 89t85 229t-84 228t-212 87zM649 1116q153 0 289 -77t212 -209t76 -286t-76 -287t-209 -209q-132 -76 -291 -76q-234 0 -400 166t-165 414q-1 246 175 405t389 159zM703 1679h323l-366 -392h-196z" />
    <glyph glyph-name="ocircumflex" unicode="&#xf4;" horiz-adv-x="1311" 
d="M654 859q-128 -1 -212 -89t-85 -228t83 -228t212 -88t213 89t85 229t-84 228t-212 87zM649 1116q153 0 289 -77t212 -209t76 -286t-76 -287t-209 -209q-132 -76 -291 -76q-234 0 -400 166t-165 414q-1 246 175 405t389 159zM247 1287l300 283h219l298 -283h-298l-108 131
l-111 -131h-300z" />
    <glyph glyph-name="otilde" unicode="&#xf5;" horiz-adv-x="1311" 
d="M654 859q-128 -1 -212 -89t-85 -228t83 -228t212 -88t213 89t85 229t-84 228t-212 87zM649 1116q153 0 289 -77t212 -209t76 -286t-76 -287t-209 -209q-132 -76 -291 -76q-234 0 -400 166t-165 414q-1 246 175 405t389 159zM498 1555q49 0 149 -28t166 -28t156 52
l104 -156q-126 -108 -244 -108q-63 0 -143 24t-102 28t-59 4q-88 0 -176 -52l-110 165q128 99 259 99z" />
    <glyph glyph-name="odieresis" unicode="&#xf6;" horiz-adv-x="1311" 
d="M654 859q-128 -1 -212 -89t-85 -228t83 -228t212 -88t213 89t85 229t-84 228t-212 87zM649 1116q153 0 289 -77t212 -209t76 -286t-76 -287t-209 -209q-132 -76 -291 -76q-234 0 -400 166t-165 414q-1 246 175 405t389 159zM876 1573q60 0 102 -42q42 -41 42 -101
t-42 -102t-102 -42t-101 42q-42 42 -42 102t42 101q41 42 101 42zM434 1573q60 0 101 -42q42 -41 42 -101t-42 -102q-41 -42 -101 -42t-102 42t-42 102t42 101q42 42 102 42z" />
    <glyph glyph-name="divide" unicode="&#xf7;" horiz-adv-x="1124" 
d="M401 466h322v-321h-322v321zM62 860h999v-250h-999v250zM401 1326h322v-321h-322v321z" />
    <glyph glyph-name="oslash" unicode="&#xf8;" horiz-adv-x="1352" 
d="M675 226q126 0 211 89t85 229q0 82 -32 152l-395 -441q63 -29 131 -29zM675 859q-127 0 -212 -88.5t-85 -226.5q0 -94 45 -177l406 453q-68 39 -154 39zM1247 545q0 -154 -76.5 -288t-208.5 -209.5t-295 -75.5t-298 88l-130 -145l-125 107l130 146q-138 159 -138 375
q0 254 186 423q164 150 379 150q178 0 331 -103l126 140l123 -110l-128 -143q124 -160 124 -355z" />
    <glyph glyph-name="ugrave" unicode="&#xf9;" 
d="M137 1088h276v-524q0 -152 21 -212q44 -126 183 -126q138 0 185 128q17 47 17 201v533h274v-461q0 -285 -50 -401t-157 -186q-107 -68 -279 -68q-173 0 -283 80t-155 223q-32 99 -32 360v453zM567 1679l239 -392h-196l-366 392h323z" />
    <glyph glyph-name="uacute" unicode="&#xfa;" 
d="M137 1088h276v-524q0 -152 21 -212q44 -126 183 -126q138 0 185 128q17 47 17 201v533h274v-461q0 -285 -50 -401t-157 -186q-107 -68 -279 -68q-173 0 -283 80t-155 223q-32 99 -32 360v453zM663 1679h323l-366 -392h-196z" />
    <glyph glyph-name="ucircumflex" unicode="&#xfb;" 
d="M137 1088h276v-524q0 -152 21 -212q44 -126 183 -126q138 0 185 128q17 47 17 201v533h274v-461q0 -285 -50 -401t-157 -186q-107 -68 -279 -68q-173 0 -283 80t-155 223q-32 99 -32 360v453zM206 1287l300 283h219l298 -283h-298l-108 131l-111 -131h-300z" />
    <glyph glyph-name="udieresis" unicode="&#xfc;" 
d="M137 1088h276v-524q0 -152 21 -212q44 -126 183 -126q138 0 185 128q17 47 17 201v533h274v-461q0 -285 -50 -401t-157 -186q-107 -68 -279 -68q-173 0 -283 80t-155 223q-32 99 -32 360v453zM836 1573q60 0 102 -42q42 -41 42 -101t-42 -102t-102 -42t-101 42
q-42 42 -42 102t42 101q41 42 101 42zM394 1573q60 0 101 -42q42 -41 42 -101t-42 -102q-41 -42 -101 -42t-102 42t-42 102t42 101q42 42 102 42z" />
    <glyph glyph-name="yacute" unicode="&#xfd;" horiz-adv-x="1188" 
d="M17 1088h279l283 -683l312 683h280l-682 -1486h-282l224 479zM641 1679h323l-366 -392h-196z" />
    <glyph glyph-name="thorn" unicode="&#xfe;" horiz-adv-x="1352" 
d="M696 864q-128 0 -213.5 -88t-85.5 -232t85 -233t212 -89t212.5 91t85.5 231t-84 230t-212 90zM758 -28q-198 0 -349 143v-513h-271v1906h271v-540q149 148 353 148t353 -161t149 -409t-154 -411t-352 -163z" />
    <glyph glyph-name="ydieresis" unicode="&#xff;" horiz-adv-x="1188" 
d="M17 1088h279l283 -683l312 683h280l-682 -1486h-282l224 479zM816 1573q60 0 101 -42q42 -41 42 -101t-42 -102q-41 -42 -101 -42t-102 42t-42 102t42 101q42 42 102 42zM372 1573q60 0 102 -42q42 -41 42 -101t-42 -102t-102 -42t-101 42q-42 42 -42 102t42 101
q41 42 101 42z" />
    <glyph glyph-name="Amacron" unicode="&#x100;" horiz-adv-x="1515" 
d="M760 1081l-196 -505h391zM616 1471h284l566 -1471h-291l-115 303h-600l-120 -303h-291zM473 1585v221h569v-221h-569z" />
    <glyph glyph-name="amacron" unicode="&#x101;" horiz-adv-x="1352" 
d="M656 864q-128 0 -212 -90t-84 -230t86 -231t212 -91q127 0 212 90t85 232q0 144 -85 232q-86 88 -214 88zM591 1116q205 0 351 -148v120h272v-1088h-272v115q-151 -143 -348 -143q-198 0 -352 164t-154 410q0 248 149 409t354 161zM366 1287v221h569v-221h-569z" />
    <glyph glyph-name="Abreve" unicode="&#x102;" horiz-adv-x="1515" 
d="M760 1081l-196 -505h391zM616 1471h284l566 -1471h-291l-115 303h-600l-120 -303h-291zM767 1784q134 0 186 82h221q-20 -127 -122 -204t-286 -77q-236 0 -342 133q-51 64 -64 148h221q52 -82 186 -82z" />
    <glyph glyph-name="abreve" unicode="&#x103;" horiz-adv-x="1352" 
d="M656 864q-128 0 -212 -90t-84 -230t86 -231t212 -91q127 0 212 90t85 232q0 144 -85 232q-86 88 -214 88zM591 1116q205 0 351 -148v120h272v-1088h-272v115q-151 -143 -348 -143q-198 0 -352 164t-154 410q0 248 149 409t354 161zM657 1287q-236 0 -342 133
q-51 64 -64 148h221q52 -82 186 -82t186 82h221q-19 -127 -121 -204t-287 -77z" />
    <glyph glyph-name="Aogonek" unicode="&#x104;" horiz-adv-x="1515" 
d="M760 1081l-196 -505h391zM1317 -165q0 -41 29 -67t69 -26t93 27v-159q-69 -15 -128 -15q-118 0 -181 54t-63 125q0 147 177 226h-138l-115 303h-600l-120 -303h-291l567 1471h284l566 -1471h-9q-140 -83 -140 -165z" />
    <glyph glyph-name="aogonek" unicode="&#x105;" horiz-adv-x="1352" 
d="M656 864q-128 0 -212 -90t-84 -230t86 -231t212 -91q127 0 212 90t85 232q0 144 -85 232q-86 88 -214 88zM591 1116q205 0 351 -148v120h272v-1088h14q-140 -83 -140 -165q0 -41 29 -67t69 -26t93 27v-159q-69 -15 -128 -15q-118 0 -181 54t-63 125q0 147 177 226h-142
v115q-151 -143 -348 -143q-198 0 -352 164t-154 410q0 248 149 409t354 161z" />
    <glyph glyph-name="Cacute" unicode="&#x106;" horiz-adv-x="1597" 
d="M874 1236q-212 0 -356 -144t-144 -355q0 -147 64 -261t181 -179t249 -65t234 46q101 46 222 165l190 -198q-163 -159 -308 -221t-331 -61q-343 -1 -561 217t-219 558q-1 220 99 391t286 275t383 104q199 0 367 -77t290 -219l-196 -187q-200 211 -450 211zM895 1975h323
l-366 -392h-196z" />
    <glyph glyph-name="cacute" unicode="&#x107;" horiz-adv-x="1311" 
d="M703 862q-153 0 -247 -92t-95 -232q0 -141 91 -229t239 -88q183 0 285 125l215 -147q-175 -227 -478 -227t-465 170t-163 398q0 158 79 291q78 133 220 209t310 76q338 0 509 -248l-227 -125q-64 67 -126 93t-147 26zM740 1679h323l-366 -392h-196z" />
    <glyph glyph-name="Ccircumflex" unicode="&#x108;" horiz-adv-x="1597" 
d="M874 1236q-212 0 -356 -144t-144 -355q0 -147 64 -261t181 -179t249 -65t234 46q101 46 222 165l190 -198q-163 -159 -308 -221t-331 -61q-343 -1 -561 217t-219 558q-1 220 99 391t286 275t383 104q199 0 367 -77t290 -219l-196 -187q-200 211 -450 211zM436 1585
l300 283h219l298 -283h-298l-108 131l-111 -131h-300z" />
    <glyph glyph-name="ccircumflex" unicode="&#x109;" horiz-adv-x="1311" 
d="M703 862q-153 0 -247 -92t-95 -232q0 -141 91 -229t239 -88q183 0 285 125l215 -147q-175 -227 -478 -227t-465 170t-163 398q0 158 79 291q78 133 220 209t310 76q338 0 509 -248l-227 -125q-64 67 -126 93t-147 26zM235 1287l300 283h219l298 -283h-298l-108 131
l-111 -131h-300z" />
    <glyph glyph-name="Cdot" unicode="&#x10a;" horiz-adv-x="1597" 
d="M874 1236q-212 0 -356 -144t-144 -355q0 -147 64 -261t181 -179t249 -65t234 46q101 46 222 165l190 -198q-163 -159 -308 -221t-331 -61q-343 -1 -561 217t-219 558q-1 220 99 391t286 275t383 104q199 0 367 -77t290 -219l-196 -187q-200 211 -450 211zM858 1871
q60 0 101 -42q42 -41 42 -101t-42 -102q-41 -42 -101 -42t-102 42t-42 102t42 101q42 42 102 42z" />
    <glyph glyph-name="cdot" unicode="&#x10b;" horiz-adv-x="1311" 
d="M703 862q-153 0 -247 -92t-95 -232q0 -141 91 -229t239 -88q183 0 285 125l215 -147q-175 -227 -478 -227t-465 170t-163 398q0 158 79 291q78 133 220 209t310 76q338 0 509 -248l-227 -125q-64 67 -126 93t-147 26zM682 1573q60 0 101 -42q42 -41 42 -101t-42 -102
q-41 -42 -101 -42t-102 42t-42 102t42 101q42 42 102 42z" />
    <glyph glyph-name="Ccaron" unicode="&#x10c;" horiz-adv-x="1597" 
d="M874 1236q-212 0 -356 -144t-144 -355q0 -147 64 -261t181 -179t249 -65t234 46q101 46 222 165l190 -198q-163 -159 -308 -221t-331 -61q-343 -1 -561 217t-219 558q-1 220 99 391t286 275t383 104q199 0 367 -77t290 -219l-196 -187q-200 211 -450 211zM463 1866h300
l111 -132l108 132h298l-298 -283h-219z" />
    <glyph glyph-name="ccaron" unicode="&#x10d;" horiz-adv-x="1311" 
d="M703 862q-153 0 -247 -92t-95 -232q0 -141 91 -229t239 -88q183 0 285 125l215 -147q-175 -227 -478 -227t-465 170t-163 398q0 158 79 291q78 133 220 209t310 76q338 0 509 -248l-227 -125q-64 67 -126 93t-147 26zM283 1570h300l111 -132l108 132h298l-298 -283h-219z
" />
    <glyph glyph-name="Dcaron" unicode="&#x10e;" horiz-adv-x="1434" 
d="M448 1201v-927h130q192 0 278 44t142 148q55 104 55 256q0 479 -510 479h-95zM169 1471h332q321 1 477 -79t257 -259t101 -418q0 -171 -56 -313t-156 -236t-216 -130t-402 -36h-337v1471zM160 1868h300l111 -132l108 132h298l-298 -283h-219z" />
    <glyph glyph-name="dcaron" unicode="&#x10f;" horiz-adv-x="1477" 
d="M656 864q-128 0 -212 -90t-84 -230t86 -231t212 -91q127 0 212 90t85 232q0 144 -85 232q-86 88 -214 88zM591 1116q205 0 351 -148v540h272v-1508h-272v115q-151 -143 -348 -143q-198 0 -352 164t-154 410q0 248 149 409t354 161zM1289 1508h252v-138q-1 -132 -33 -227
t-109 -196l-98 77q37 54 55 94t34 104h-101v286z" />
    <glyph glyph-name="Dslash" unicode="&#x110;" horiz-adv-x="1520" 
d="M498 1201v-384h302v-163h-302v-380h154q192 0 278.5 44t141.5 148t55 256q0 479 -510 479h-119zM219 1471h357q320 0 476 -79.5t257 -258.5t101 -418q0 -170 -56.5 -312.5t-156 -236.5t-215.5 -130t-402 -36h-361v654h-169v163h169v654z" />
    <glyph glyph-name="dmacron" unicode="&#x111;" horiz-adv-x="1352" 
d="M656 864q-128 0 -212 -90t-84 -230t85.5 -231t212.5 -91t212 89t85 233t-85.5 232t-213.5 88zM591 1116q205 0 351 -148v263h-427v163h427v114h272v-114h137v-163h-137v-1231h-272v115q-151 -143 -348 -143q-198 0 -352 163t-154 411t149 409t354 161z" />
    <glyph glyph-name="Emacron" unicode="&#x112;" horiz-adv-x="1065" 
d="M169 1471h803v-274h-525v-266h525v-269h-525v-387h525v-275h-803v1471zM286 1585v221h569v-221h-569z" />
    <glyph glyph-name="emacron" unicode="&#x113;" horiz-adv-x="1311" 
d="M658 885q-110 0 -195 -64q-54 -40 -100 -141h591q-26 91 -106 148t-190 57zM87 541q1 247 161 411t410 164t410 -164q161 -164 161 -435l-1 -52h-877q19 -117 101 -185t224 -68q140 0 250 107l230 -108q-168 -239 -491 -239q-256 0 -417 162t-161 407zM374 1287v221h569
v-221h-569z" />
    <glyph glyph-name="Ebreve" unicode="&#x114;" horiz-adv-x="1065" 
d="M169 1471h803v-274h-525v-266h525v-269h-525v-387h525v-275h-803v1471zM570 1585q-236 0 -342 133q-51 64 -64 148h221q52 -82 186 -82t186 82h221q-20 -127 -122 -204t-286 -77z" />
    <glyph glyph-name="ebreve" unicode="&#x115;" horiz-adv-x="1311" 
d="M658 885q-110 0 -195 -64q-54 -40 -100 -141h591q-26 91 -106 148t-190 57zM87 541q1 247 161 411t410 164t410 -164q161 -164 161 -435l-1 -52h-877q19 -117 101 -185t224 -68q140 0 250 107l230 -108q-168 -239 -491 -239q-256 0 -417 162t-161 407zM657 1287
q-236 0 -342 133q-51 64 -64 148h221q52 -82 186 -82t186 82h221q-19 -127 -121 -204t-287 -77z" />
    <glyph glyph-name="Edot" unicode="&#x116;" horiz-adv-x="1065" 
d="M169 1471h803v-274h-525v-266h525v-269h-525v-387h525v-275h-803v1471zM570 1871q60 0 102 -42q42 -41 42 -101t-42 -102t-102 -42t-101 42q-42 42 -42 102t42 101q41 42 101 42z" />
    <glyph glyph-name="edot" unicode="&#x117;" horiz-adv-x="1311" 
d="M658 885q-110 0 -195 -64q-54 -40 -100 -141h591q-26 91 -106 148t-190 57zM87 541q1 247 161 411t410 164t410 -164q161 -164 161 -435l-1 -52h-877q19 -117 101 -185t224 -68q140 0 250 107l230 -108q-168 -239 -491 -239q-256 0 -417 162t-161 407zM658 1573
q60 0 102 -42q42 -41 42 -101t-42 -102t-102 -42t-101 42q-42 42 -42 102t42 101q41 42 101 42z" />
    <glyph glyph-name="Eogonek" unicode="&#x118;" horiz-adv-x="1065" 
d="M169 1471h803v-274h-525v-266h525v-269h-525v-387h525v-275h-135q-140 -83 -140 -165q0 -41 29 -67t69 -26t93 27v-159q-69 -15 -128 -15q-118 0 -181 54t-63 125q0 147 177 226h-524v1471z" />
    <glyph glyph-name="eogonek" unicode="&#x119;" horiz-adv-x="1311" 
d="M658 885q-110 0 -195 -64q-54 -40 -100 -141h591q-26 91 -106 148t-190 57zM676 212q140 0 250 107l230 -108q-86 -122 -191 -173t-221 -62q-102 -71 -102 -141q0 -41 29 -67t69 -26t93 27v-159q-69 -15 -128 -15q-118 0 -181 54t-63 125q0 124 130 202q-206 20 -343 158
q-161 162 -161 407q1 247 161 411t410 164t410 -164q161 -164 161 -435l-1 -52h-877q19 -117 101 -185q84 -68 224 -68z" />
    <glyph glyph-name="Ecaron" unicode="&#x11a;" horiz-adv-x="1065" 
d="M169 1471h803v-274h-525v-266h525v-269h-525v-387h525v-275h-803v1471zM194 1868h300l111 -132l108 132h298l-298 -283h-219z" />
    <glyph glyph-name="ecaron" unicode="&#x11b;" horiz-adv-x="1311" 
d="M658 885q-110 0 -195 -64q-54 -40 -100 -141h591q-26 91 -106 148t-190 57zM87 541q1 247 161 411t410 164t410 -164q161 -164 161 -435l-1 -52h-877q19 -117 101 -185t224 -68q140 0 250 107l230 -108q-168 -239 -491 -239q-256 0 -417 162t-161 407zM247 1570h300
l111 -132l108 132h298l-298 -283h-219z" />
    <glyph glyph-name="Gcircumflex" unicode="&#x11c;" horiz-adv-x="1720" 
d="M893 1234q-217 0 -363 -144t-147 -354q0 -210 152 -357q152 -148 375 -148q287 0 405 252h-426v263h740l2 -62q0 -193 -100 -366q-205 -355 -632 -355q-229 -1 -409 99t-284 284t-104 397q0 292 193 508q229 257 596 257q192 0 346 -66t289 -211l-197 -195
q-187 198 -436 198zM458 1585l300 283h219l298 -283h-298l-108 131l-111 -131h-300z" />
    <glyph glyph-name="gcircumflex" unicode="&#x11d;" horiz-adv-x="1352" 
d="M660 861q-130 -1 -214 -87t-84 -220t86 -220q86 -87 214 -87t212 85q82 85 82 222t-83 222t-213 85zM91 566q1 250 153 400t346 150t352 -148v120h272v-932q0 -276 -111 -406q-149 -176 -449 -176t-453 158q-75 78 -111 188h301q81 -93 252 -93q209 0 271 122
q28 54 28 186q-135 -135 -342 -135t-358 158t-151 408zM243 1287l300 283h219l298 -283h-298l-108 131l-111 -131h-300z" />
    <glyph glyph-name="Gbreve" unicode="&#x11e;" horiz-adv-x="1720" 
d="M893 1234q-217 0 -363 -144t-147 -354q0 -210 152 -357q152 -148 375 -148q287 0 405 252h-426v263h740l2 -62q0 -193 -100 -366q-205 -355 -632 -355q-229 -1 -409 99t-284 284t-104 397q0 292 193 508q229 257 596 257q192 0 346 -66t289 -211l-197 -195
q-187 198 -436 198zM860 1782q134 0 186 82h221q-19 -127 -121 -204t-287 -77q-236 0 -342 133q-51 64 -64 148h221q52 -82 186 -82z" />
    <glyph glyph-name="gbreve" unicode="&#x11f;" horiz-adv-x="1352" 
d="M660 861q-130 -1 -214 -87t-84 -220t86 -220q86 -87 214 -87t212 85q82 85 82 222t-83 222t-213 85zM91 566q1 250 153 400t346 150t352 -148v120h272v-932q0 -276 -111 -406q-149 -176 -449 -176t-453 158q-75 78 -111 188h301q81 -93 252 -93q209 0 271 122
q28 54 28 186q-135 -135 -342 -135t-358 158t-151 408zM711 1287q-236 0 -342 133q-51 64 -64 148h221q52 -82 186 -82t186 82h221q-19 -127 -121 -204t-287 -77z" />
    <glyph glyph-name="Gdot" unicode="&#x120;" horiz-adv-x="1720" 
d="M893 1234q-217 0 -363 -144t-147 -354q0 -210 152 -357q152 -148 375 -148q287 0 405 252h-426v263h740l2 -62q0 -193 -100 -366q-205 -355 -632 -355q-229 -1 -409 99t-284 284t-104 397q0 292 193 508q229 257 596 257q192 0 346 -66t289 -211l-197 -195
q-187 198 -436 198zM866 1871q60 0 102 -42q42 -41 42 -101t-42 -102t-102 -42t-101 42q-42 42 -42 102t42 101q41 42 101 42z" />
    <glyph glyph-name="gdot" unicode="&#x121;" horiz-adv-x="1352" 
d="M660 861q-130 -1 -214 -87t-84 -220t86 -220q86 -87 214 -87t212 85q82 85 82 222t-83 222t-213 85zM91 566q1 250 153 400t346 150t352 -148v120h272v-932q0 -276 -111 -406q-149 -176 -449 -176t-453 158q-75 78 -111 188h301q81 -93 252 -93q209 0 271 122
q28 54 28 186q-135 -135 -342 -135t-358 158t-151 408zM652 1573q60 0 101 -42q42 -41 42 -101t-42 -102q-41 -42 -101 -42t-102 42t-42 102t42 101q42 42 102 42z" />
    <glyph glyph-name="Gcedilla" unicode="&#x122;" horiz-adv-x="1720" 
d="M887 -158q0 56 -79 56l-56 -2l22 75q-154 19 -284 91q-180 100 -284 284t-104 397q0 292 193 508q229 257 596 257q192 0 346 -66t289 -211l-197 -195q-187 198 -436 198q-217 0 -363 -144t-147 -354q0 -210 152 -357q152 -148 375 -148q287 0 405 252h-426v263h740
l2 -62q0 -193 -100 -366q-189 -327 -568 -353q54 -16 89 -57q36 -40 36 -92q0 -81 -68 -139t-178 -58t-233 46l36 129q72 -23 132 -23q110 0 110 71z" />
    <glyph glyph-name="gcedilla" unicode="&#x123;" horiz-adv-x="1352" 
d="M660 861q-130 -1 -214 -87t-84 -220t86 -220q86 -87 214 -87t212 85q82 85 82 222t-83 222t-213 85zM91 566q1 250 153 400t346 150t352 -148v120h272v-932q0 -276 -111 -406q-149 -176 -449 -176t-453 158q-75 78 -111 188h301q81 -93 252 -93q209 0 271 122
q28 54 28 186q-135 -135 -342 -135t-358 158t-151 408zM803 1247h-252v139q1 130 33 226t109 196l98 -77q-37 -54 -55 -93t-34 -104h101v-287z" />
    <glyph glyph-name="Hcircumflex" unicode="&#x124;" horiz-adv-x="1393" 
d="M167 1471h284v-555h492v555h283v-1471h-283v645h-492v-645h-284v1471zM288 1585l300 283h219l298 -283h-298l-108 131l-111 -131h-300z" />
    <glyph glyph-name="hcircumflex" unicode="&#x125;" 
d="M732 1116q164 0 266 -104q103 -104 103 -293v-719h-269v477q0 189 -18 256q-36 133 -169 133q-83 0 -143 -55t-82 -150q-12 -49 -12 -224v-437h-271v1508h271v-530q161 138 324 138zM211 1583l300 283h219l298 -283h-298l-108 131l-111 -131h-300z" />
    <glyph glyph-name="Hbar" unicode="&#x126;" horiz-adv-x="1393" 
d="M450 1129v-213h492v213h-492zM450 1292h492v179h283v-179h133v-163h-133v-1129h-283v645h-492v-645h-283v1129h-133v163h133v179h283v-179z" />
    <glyph glyph-name="hbar" unicode="&#x127;" 
d="M410 1384h321v-163h-321v-243q153 138 320 138t271.5 -103t104.5 -294v-719h-273v477q0 166 -13.5 238t-58.5 111.5t-121 39.5t-136 -55t-77 -128t-17 -246v-437h-273v1221h-137v163h137v124h273v-124z" />
    <glyph glyph-name="Itilde" unicode="&#x128;" horiz-adv-x="573" 
d="M148 1471h278v-1471h-278v1471zM129 1853q49 0 149 -28t166 -28t156 52l104 -156q-126 -108 -244 -108q-63 0 -143 24q-81 24 -103 28t-58 4q-88 0 -176 -52l-110 165q128 99 259 99z" />
    <glyph glyph-name="itilde" unicode="&#x129;" horiz-adv-x="491" 
d="M109 1088h274v-1088h-274v1088zM88 1555q49 0 149 -28t166 -28t156 52l104 -156q-126 -108 -244 -108q-63 0 -143 24t-102 28t-59 4q-88 0 -176 -52l-110 165q128 99 259 99z" />
    <glyph glyph-name="Imacron" unicode="&#x12a;" horiz-adv-x="573" 
d="M148 1471h278v-1471h-278v1471zM2 1585v221h569v-221h-569z" />
    <glyph glyph-name="imacron" unicode="&#x12b;" horiz-adv-x="491" 
d="M109 1088h274v-1088h-274v1088zM-39 1287v221h569v-221h-569z" />
    <glyph glyph-name="Ibreve" unicode="&#x12c;" horiz-adv-x="573" 
d="M148 1471h278v-1471h-278v1471zM287 1784q134 0 186 82h221q-20 -127 -122 -204t-286 -77q-236 0 -342 133q-51 64 -64 148h221q52 -82 186 -82z" />
    <glyph glyph-name="ibreve" unicode="&#x12d;" horiz-adv-x="491" 
d="M109 1088h274v-1088h-274v1088zM245 1486q134 0 186 82h221q-20 -127 -122 -204t-286 -77q-236 0 -342 133q-51 64 -64 148h221q52 -82 186 -82z" />
    <glyph glyph-name="Iogonek" unicode="&#x12e;" horiz-adv-x="573" 
d="M148 1471h278v-1471q-140 -83 -140 -165q0 -41 29 -67t69 -26t93 27v-159q-69 -15 -128 -15q-118 0 -181 54t-63 125q0 147 177 226h-134v1471z" />
    <glyph glyph-name="iogonek" unicode="&#x12f;" horiz-adv-x="491" 
d="M108 1088h274v-1088q-140 -83 -140 -165q0 -41 29 -67t69 -26t93 27v-159q-69 -15 -128 -15q-118 0 -181 54t-63 125q0 147 177 226h-130v1088zM245 1536q71 0 123 -52t52 -126t-51 -124q-51 -52 -123 -52t-124 52t-51 126q0 74 51 125t123 51z" />
    <glyph glyph-name="Idot" unicode="&#x130;" horiz-adv-x="573" 
d="M148 1471h278v-1471h-278v1471zM286 1869q60 0 102 -42q42 -41 42 -101t-42 -102t-102 -42t-101 42q-42 42 -42 102t42 101q41 42 101 42z" />
    <glyph glyph-name="dotlessi" unicode="&#x131;" horiz-adv-x="491" 
d="M108 1088h274v-1088h-274v1088z" />
    <glyph glyph-name="IJ" unicode="&#x132;" horiz-adv-x="1556" 
d="M1107 1471h281v-976q0 -204 -27.5 -302t-116.5 -164t-220 -66q-242 0 -413 213l202 189q110 -128 206 -128q51 0 69.5 44t18.5 161v1029zM148 1471h278v-1471h-278v1471z" />
    <glyph glyph-name="ij" unicode="&#x133;" horiz-adv-x="1024" 
d="M623 1088h274v-1124q0 -241 -83.5 -315.5t-185.5 -74.5t-221 41v215q62 -31 111 -31t77 28.5t28 116.5v1144zM110 1088h274v-1088h-274v1088zM423 1361q0 -73 -52 -124.5t-124 -51.5t-124 51.5t-52 123.5t52.5 124t124.5 52t123.5 -51t51.5 -124zM936 1361
q0 -73 -52 -124.5t-124 -51.5t-124 51.5t-52 124.5t52 124.5t124 51.5t124 -51.5t52 -124.5z" />
    <glyph glyph-name="Jcircumflex" unicode="&#x134;" horiz-adv-x="983" 
d="M534 1471h281v-976q0 -233 -37 -327t-122 -150t-204 -55q-243 0 -414 213l202 189q67 -76 114 -102q48 -26 92 -26t66 38t22 167v1029zM156 1585l300 283h219l298 -283h-298l-108 131l-111 -131h-300z" />
    <glyph glyph-name="jcircumflex" unicode="&#x135;" horiz-adv-x="532" 
d="M130 1088h274v-1124q0 -240 -84 -315t-186 -75t-221 41v215q63 -31 115 -31t76 31q26 31 26 114v1144zM-142 1287l300 283h219l298 -283h-298l-108 131l-111 -131h-300z" />
    <glyph glyph-name="Kcedilla" unicode="&#x136;" horiz-adv-x="1270" 
d="M170 1471h283v-506l399 506h337l-514 -656l564 -815h-332l-454 653v-653h-283v1471zM603 -75q117 -1 175 -53t59 -125q0 -73 -65 -133t-170 -61q-105 0 -216 36l35 131q70 -16 110 -16q106 0 106 71q0 57 -81 57q-24 0 -75 -5l26 94q61 4 96 4z" />
    <glyph glyph-name="kcedilla" unicode="&#x137;" horiz-adv-x="1188" 
d="M140 1508h273v-869l402 449h342l-468 -522l525 -566h-339l-462 501v-501h-273v1508zM575 -75q117 -1 175 -53t59 -125q0 -73 -65 -133t-170 -61q-105 0 -216 36l35 131q70 -16 110 -16q106 0 106 71q0 57 -81 57q-24 0 -75 -5l26 94q61 4 96 4z" />
    <glyph glyph-name="kgreenlandic" unicode="&#x138;" horiz-adv-x="1188" 
d="M140 1088h273v-449l402 449h342l-468 -522l525 -566h-339l-462 501v-501h-273v1088z" />
    <glyph glyph-name="Lacute" unicode="&#x139;" horiz-adv-x="901" 
d="M168 1471h280v-1204h408v-267h-688v1471zM453 1977h323l-366 -392h-196z" />
    <glyph glyph-name="lacute" unicode="&#x13a;" horiz-adv-x="491" 
d="M109 1508h273v-1508h-273v1508zM258 1977h323l-366 -392h-196z" />
    <glyph glyph-name="Lcedilla" unicode="&#x13b;" horiz-adv-x="901" 
d="M168 1471h280v-1204h408v-267h-688v1471zM431 -75q117 -1 175 -53t59 -125q0 -73 -65 -133t-170 -61q-105 0 -216 36l35 131q70 -16 110 -16q106 0 106 71q0 57 -81 57q-24 0 -75 -5l26 94q61 4 96 4z" />
    <glyph glyph-name="lcedilla" unicode="&#x13c;" horiz-adv-x="491" 
d="M109 1508h273v-1508h-273v1508zM214 -75q118 -1 176 -53t58 -125t-65 -133t-170 -61q-105 0 -216 36l35 131q70 -16 110 -16q106 0 106 71q0 57 -81 57q-24 0 -75 -5l26 94q61 4 96 4z" />
    <glyph glyph-name="Lcaron" unicode="&#x13d;" horiz-adv-x="901" 
d="M168 1471h280v-1204h408v-267h-688v1471zM580 1508h252v-138q0 -132 -32 -227t-110 -196l-98 77q36 54 54 94t35 104h-101v286z" />
    <glyph glyph-name="lcaron" unicode="&#x13e;" horiz-adv-x="645" 
d="M109 1508h273v-1508h-273v1508zM480 1508h252v-138q0 -132 -32 -227t-110 -196l-98 77q36 54 54 94t35 104h-101v286z" />
    <glyph glyph-name="Ldot" unicode="&#x13f;" horiz-adv-x="901" 
d="M168 1471h280v-1204h408v-267h-688v1471zM676 897q60 1 102 -41t42 -102t-42 -101q-42 -42 -102 -42t-101 42q-42 41 -42 101t42 102q41 42 101 41z" />
    <glyph glyph-name="ldot" unicode="&#x140;" horiz-adv-x="711" 
d="M109 1508h273v-1508h-273v1508zM596 897q60 1 102 -41t42 -102t-42 -101q-42 -42 -102 -42t-101 42q-42 41 -42 101t42 102q41 42 101 41z" />
    <glyph glyph-name="Lslash" unicode="&#x141;" horiz-adv-x="983" 
d="M489 267h409v-267h-689v411l-168 -197v258l168 196v803h280v-476l224 262v-256l-224 -262v-472z" />
    <glyph glyph-name="lslash" unicode="&#x142;" horiz-adv-x="655" 
d="M465 0h-274v477l-109 -121v245l109 123v784h274v-478l108 122v-248l-108 -122v-782z" />
    <glyph glyph-name="Nacute" unicode="&#x143;" horiz-adv-x="1515" 
d="M169 1471h268l631 -968v968h280v-1471h-269l-630 965v-965h-280v1471zM845 1977h323l-366 -392h-196z" />
    <glyph glyph-name="nacute" unicode="&#x144;" 
d="M138 1088h272v-111q92 79 168 109t155 30q162 0 275 -113q95 -96 95 -284v-719h-270v477q1 195 -17 259q-36 131 -169 131q-83 1 -143 -55t-82 -154q-12 -51 -12 -221v-437h-272v1088zM651 1679h323l-366 -392h-196z" />
    <glyph glyph-name="Ncedilla" unicode="&#x145;" horiz-adv-x="1515" 
d="M169 1471h268l631 -968v968h280v-1471h-269l-630 965v-965h-280v1471zM727 -75q117 -1 175 -53t59 -125q0 -73 -65 -133t-170 -61q-105 0 -216 36l35 131q70 -16 110 -16q106 0 106 71q0 57 -81 57q-24 0 -75 -5l26 94q61 4 96 4z" />
    <glyph glyph-name="ncedilla" unicode="&#x146;" 
d="M138 1088h272v-111q92 79 168 109t155 30q162 0 275 -113q95 -96 95 -284v-719h-270v477q1 195 -17 259q-36 131 -169 131q-83 1 -143 -55t-82 -154q-12 -51 -12 -221v-437h-272v1088zM596 -75q118 -1 176 -53t58 -125t-65 -133t-170 -61q-105 0 -216 36l35 131
q70 -16 110 -16q106 0 106 71q0 57 -81 57q-24 0 -75 -5l26 94q61 4 96 4z" />
    <glyph glyph-name="Ncaron" unicode="&#x147;" horiz-adv-x="1515" 
d="M169 1471h268l631 -968v968h280v-1471h-269l-630 965v-965h-280v1471zM311 1868h300l111 -132l108 132h298l-298 -283h-219z" />
    <glyph glyph-name="ncaron" unicode="&#x148;" 
d="M138 1088h272v-111q92 79 168 109t155 30q162 0 275 -113q95 -96 95 -284v-719h-270v477q1 195 -17 259q-36 131 -169 131q-83 1 -143 -55t-82 -154q-12 -51 -12 -221v-437h-272v1088zM297 1570h300l111 -132l108 132h298l-298 -283h-219z" />
    <glyph glyph-name="napostrophe" unicode="&#x149;" horiz-adv-x="1317" 
d="M226 1088h272v-111q92 79 168 109t155 30q162 0 275 -113q95 -96 95 -284v-719h-270v477q1 195 -17 259q-36 131 -169 131q-83 1 -143 -55t-82 -154q-12 -51 -12 -221v-437h-272v1088zM-51 1508h252v-138q-1 -132 -33 -227t-109 -196l-98 77q37 54 55 94t34 104h-101v286
z" />
    <glyph glyph-name="Eng" unicode="&#x14a;" horiz-adv-x="1622" 
d="M884 1508q260 0 450.5 -216t190.5 -554t-143 -556.5t-408 -218.5q-129 0 -221 47t-180 166l199 186q97 -128 197 -128q126 0 200 139t74 366t-112 363.5t-283 136.5q-212 0 -397 -267v-972h-284v1471h284v-156q173 193 433 193z" />
    <glyph glyph-name="eng" unicode="&#x14b;" 
d="M1105 719v-755q0 -240 -83.5 -315t-185.5 -75t-221 41v215q61 -31 111 -31t78 29t28 116v537q0 170 -12 237.5t-58 108t-122 40.5t-136 -56t-77 -130.5t-17 -243.5v-437h-273v1088h273v-111q160 139 324 139t267.5 -104.5t103.5 -292.5z" />
    <glyph glyph-name="Omacron" unicode="&#x14c;" horiz-adv-x="1720" 
d="M859 1234q-203 0 -342 -142t-139 -374t175 -373q135 -111 323 -111t328 144t140 354t-141 356t-344 146zM863 1508q313 0 537 -226t224 -550t-222 -546q-222 -223 -544 -223q-324 0 -543 229t-219 544q0 211 102 388q102 176 280 280t385 104zM575 1585v221h569v-221
h-569z" />
    <glyph glyph-name="omacron" unicode="&#x14d;" horiz-adv-x="1311" 
d="M654 859q-128 -1 -212 -89t-85 -228t83 -228t212 -88t213 89t85 229t-84 228t-212 87zM649 1116q153 0 289 -77t212 -209t76 -286t-76 -287t-209 -209q-132 -76 -291 -76q-234 0 -400 166t-165 414q-1 246 175 405t389 159zM371 1287v221h569v-221h-569z" />
    <glyph glyph-name="Obreve" unicode="&#x14e;" horiz-adv-x="1720" 
d="M859 1234q-203 0 -342 -142t-139 -374t175 -373q135 -111 323 -111t328 144t140 354t-141 356t-344 146zM863 1508q313 0 537 -226t224 -550t-222 -546q-222 -223 -544 -223q-324 0 -543 229t-219 544q0 211 102 388q102 176 280 280t385 104zM860 1784q134 0 186 82h221
q-19 -127 -121 -204t-287 -77q-236 0 -342 133q-51 64 -64 148h221q52 -82 186 -82z" />
    <glyph glyph-name="obreve" unicode="&#x14f;" horiz-adv-x="1311" 
d="M654 859q-128 -1 -212 -89t-85 -228t83 -228t212 -88t213 89t85 229t-84 228t-212 87zM649 1116q153 0 289 -77t212 -209t76 -286t-76 -287t-209 -209q-132 -76 -291 -76q-234 0 -400 166t-165 414q-1 246 175 405t389 159zM654 1287q-236 0 -342 133q-51 64 -64 148h221
q52 -82 186 -82t186 82h221q-20 -127 -122 -204t-286 -77z" />
    <glyph glyph-name="Odblacute" unicode="&#x150;" horiz-adv-x="1720" 
d="M859 1234q-203 0 -342 -142t-139 -374t175 -373q135 -111 323 -111t328 144t140 354t-141 356t-344 146zM863 1508q313 0 537 -226t224 -550t-222 -546q-222 -223 -544 -223q-324 0 -543 229t-219 544q0 211 102 388q102 176 280 280t385 104zM1239 1977h323l-365 -392
h-197zM793 1977h323l-366 -392h-196z" />
    <glyph glyph-name="odblacute" unicode="&#x151;" horiz-adv-x="1311" 
d="M654 859q-128 -1 -212 -89t-85 -228t83 -228t212 -88t213 89t85 229t-84 228t-212 87zM649 1116q153 0 289 -77t212 -209t76 -286t-76 -287t-209 -209q-132 -76 -291 -76q-234 0 -400 166t-165 414q-1 246 175 405t389 159zM1057 1679h323l-365 -392h-197zM611 1679h323
l-366 -392h-196z" />
    <glyph glyph-name="OE" unicode="&#x152;" horiz-adv-x="2171" 
d="M835 1239q-186 0 -322 -144.5t-136 -358.5q0 -147 62 -261t174 -179t242 -65q188 0 318.5 140t130.5 356q0 145 -61.5 262t-172.5 183.5t-235 66.5zM842 1508q254 0 463 -168v131h777v-275h-494v-267h494v-268h-494v-387h494v-274h-777v135q-193 -172 -465 -172
q-210 0 -379 98t-268 277.5t-99 393.5t98.5 392.5t274 281t375.5 102.5z" />
    <glyph glyph-name="oe" unicode="&#x153;" horiz-adv-x="2212" 
d="M666 869q-88 0 -159 -41.5t-111.5 -117.5t-40.5 -168t60.5 -208t243.5 -116q136 0 223.5 91t87.5 233t-88.5 234.5t-215.5 92.5zM1562 881q-110 0 -193 -57t-110 -149h601q-31 99 -109.5 152.5t-188.5 53.5zM82 542q0 237 170.5 405.5t410.5 168.5q287 0 447 -211
q172 211 450 211q172 0 373.5 -121.5t197.5 -533.5h-881q17 -114 101.5 -183.5t219.5 -69.5t248 102l237 -108q-185 -230 -486 -230t-460 208q-168 -208 -447 -208q-247 0 -414 166.5t-167 403.5z" />
    <glyph glyph-name="Racute" unicode="&#x154;" horiz-adv-x="1188" 
d="M467 896h88q135 0 185 35t50 116q0 47 -25 83t-67 52t-154 15h-77v-301zM1061 1044q0 -290 -279 -390l348 -654h-306l-331 623h-26v-623h-280v1471h297q244 1 348 -43t166 -145q63 -101 63 -239zM678 1977h323l-366 -392h-196z" />
    <glyph glyph-name="racute" unicode="&#x155;" horiz-adv-x="655" 
d="M74 1088h234v-137q38 81 101 123t127 42t122 -28l-85 -235q-48 24 -79 24q-62 0 -106 -78t-44 -306l1 -53v-440h-271v1088zM403 1679h323l-366 -392h-196z" />
    <glyph glyph-name="Rcedilla" unicode="&#x156;" horiz-adv-x="1188" 
d="M467 896h88q135 0 185 35t50 116q0 47 -25 83t-67 52t-154 15h-77v-301zM1061 1044q0 -290 -279 -390l348 -654h-306l-331 623h-26v-623h-280v1471h297q244 1 348 -43t166 -145q63 -101 63 -239zM575 -75q117 -1 175 -53t59 -125q0 -73 -65 -133t-170 -61q-105 0 -216 36
l35 131q70 -16 110 -16q106 0 106 71q0 57 -81 57q-24 0 -75 -5l26 94q61 4 96 4z" />
    <glyph glyph-name="rcedilla" unicode="&#x157;" horiz-adv-x="655" 
d="M74 1088h234v-137q38 81 101 123t127 42t122 -28l-85 -235q-48 24 -79 24q-62 0 -106 -78t-44 -306l1 -53v-440h-271v1088zM308 -75q118 -1 176 -53t58 -125t-65 -133t-170 -61q-105 0 -216 36l35 131q70 -16 110 -16q106 0 106 71q0 57 -81 57q-24 0 -75 -5l26 94
q61 4 96 4z" />
    <glyph glyph-name="Rcaron" unicode="&#x158;" horiz-adv-x="1188" 
d="M467 896h88q135 0 185 35t50 116q0 47 -25 83t-67 52t-154 15h-77v-301zM1061 1044q0 -290 -279 -390l348 -654h-306l-331 623h-26v-623h-280v1471h297q244 1 348 -43t166 -145q63 -101 63 -239zM185 1868h300l111 -132l108 132h298l-298 -283h-219z" />
    <glyph glyph-name="rcaron" unicode="&#x159;" horiz-adv-x="655" 
d="M74 1088h234v-137q38 81 101 123t127 42t122 -28l-85 -235q-48 24 -79 24q-62 0 -106 -78t-44 -306l1 -53v-440h-271v1088zM-81 1570h300l111 -132l108 132h298l-298 -283h-219z" />
    <glyph glyph-name="Sacute" unicode="&#x15a;" horiz-adv-x="1065" 
d="M510 1240q-55 0 -90 -30t-35 -66q-1 -38 29 -76t196 -178t199 -174q85 -86 121 -164t35 -172q0 -181 -125 -299t-326 -118q-158 0 -274 77t-199 242l235 142q106 -195 244 -195q72 0 121 42q49 43 49 95t-37 102t-163 153q-240 197 -310 303t-70 212q0 152 116 262
t288 110q110 0 210 -51t215 -186l-207 -183q-109 152 -222 152zM508 1977h323l-366 -392h-196z" />
    <glyph glyph-name="sacute" unicode="&#x15b;" horiz-adv-x="901" 
d="M448 869q-46 1 -72 -19t-26 -46t16 -44t82 -50l100 -50q158 -78 217 -159t59 -190q0 -145 -106 -242t-286 -97q-238 0 -380 186l168 183q48 -57 112 -91t117 -34q52 0 85 26t33 60q0 63 -119 123l-92 46q-264 133 -264 333q0 128 100 220t254 92q106 0 200 -46t158 -134
l-169 -169q-103 102 -187 102zM478 1679h323l-366 -392h-196z" />
    <glyph glyph-name="Scircumflex" unicode="&#x15c;" horiz-adv-x="1065" 
d="M510 1240q-55 0 -90 -30t-35 -66q-1 -38 29 -76t196 -178t199 -174q85 -86 121 -164t35 -172q0 -181 -125 -299t-326 -118q-158 0 -274 77t-199 242l235 142q106 -195 244 -195q72 0 121 42q49 43 49 95t-37 102t-163 153q-240 197 -310 303t-70 212q0 152 116 262
t288 110q110 0 210 -51t215 -186l-207 -183q-109 152 -222 152zM95 1585l300 283h219l298 -283h-298l-108 131l-111 -131h-300z" />
    <glyph glyph-name="scircumflex" unicode="&#x15d;" horiz-adv-x="901" 
d="M449 869q-46 1 -72 -19t-26 -46q1 -26 17 -44t81 -50l100 -50q158 -78 217 -159t59 -190q-1 -145 -107 -242t-285 -97q-238 0 -380 186l168 183q49 -57 113 -91t116 -34t85 26t33 60q0 63 -119 123l-92 46q-264 133 -264 333q-1 128 99 220t255 92q105 0 199 -46
t159 -134l-169 -169q-103 102 -187 102zM30 1287l300 283h219l298 -283h-298l-108 131l-111 -131h-300z" />
    <glyph glyph-name="Scedilla" unicode="&#x15e;" horiz-adv-x="1065" 
d="M547 -158q0 56 -79 56l-56 -2l21 72q-252 35 -392 314l235 142q106 -195 244 -195q72 0 121 42q49 43 49 95t-37 102t-163 153q-240 197 -310 303t-70 212q0 152 116 262t288 110q110 0 210 -51t215 -186l-207 -183q-109 152 -222 152q-55 0 -90 -30t-35 -66
q-1 -38 29 -76t196 -178t199 -174q85 -86 121 -164t35 -172q0 -181 -125 -299q-95 -90 -235 -111q66 -15 105 -59q38 -43 38 -95q0 -81 -68 -139t-178 -58t-233 46l36 129q72 -23 132 -23q110 0 110 71z" />
    <glyph glyph-name="scedilla" unicode="&#x15f;" horiz-adv-x="901" 
d="M465 -158q0 56 -79 56l-56 -2l24 81q-184 26 -302 181l168 183q48 -57 112 -91t117 -34q52 0 85 26t33 60q0 63 -119 123l-92 46q-264 133 -264 333q0 128 100 220t254 92q106 0 200 -46t158 -134l-169 -169q-103 102 -187 102q-46 1 -72 -19t-26 -46t16 -44t82 -50
l100 -50q158 -78 217 -159t59 -190q0 -145 -106 -242q-77 -70 -194 -90l-2 -9q68 -14 106 -58t38 -96q0 -81 -68 -139t-178 -58t-233 46l36 129q72 -23 132 -23q110 0 110 71z" />
    <glyph glyph-name="Scaron" unicode="&#x160;" horiz-adv-x="1065" 
d="M510 1240q-55 0 -90 -30t-35 -66q-1 -38 29 -76t196 -178t199 -174q85 -86 121 -164t35 -172q0 -181 -125 -299t-326 -118q-158 0 -274 77t-199 242l235 142q106 -195 244 -195q72 0 121 42q49 43 49 95t-37 102t-163 153q-240 197 -310 303t-70 212q0 152 116 262
t288 110q110 0 210 -51t215 -186l-207 -183q-109 152 -222 152zM124 1868h300l111 -132l108 132h298l-298 -283h-219z" />
    <glyph glyph-name="scaron" unicode="&#x161;" horiz-adv-x="901" 
d="M448 869q-46 1 -72 -19t-26 -46t16 -44t82 -50l100 -50q158 -78 217 -159t59 -190q0 -145 -106 -242t-286 -97q-238 0 -380 186l168 183q48 -57 112 -91t117 -34q52 0 85 26t33 60q0 63 -119 123l-92 46q-264 133 -264 333q0 128 100 220t254 92q106 0 200 -46t158 -134
l-169 -169q-103 102 -187 102zM42 1570h300l111 -132l108 132h298l-298 -283h-219z" />
    <glyph glyph-name="Tcedilla" unicode="&#x162;" horiz-adv-x="860" 
d="M340 -121h180v-29q0 -130 -19 -178.5t-81 -99.5l-53 54q47 38 61 88h-88v165zM23 1471h813v-276h-264v-1195h-284v1195h-265v276z" />
    <glyph glyph-name="tcedilla" unicode="&#x163;" horiz-adv-x="614" 
d="M217 -121h180v-29q0 -130 -19 -178.5t-81 -99.5l-53 54q47 38 61 88h-88v165zM171 1489h272v-401h162v-235h-162v-853h-272v853h-140v235h140v401z" />
    <glyph glyph-name="Tcaron" unicode="&#x164;" horiz-adv-x="860" 
d="M23 1471h813v-276h-268v-1195h-284v1195h-261v276zM24 1868h300l111 -132l108 132h298l-298 -283h-219z" />
    <glyph glyph-name="tcaron" unicode="&#x165;" horiz-adv-x="735" 
d="M171 1489h272v-401h162v-235h-162v-853h-272v853h-140v235h140v401zM595 1508h204v-50q0 -198 -115 -338l-79 61q65 81 72 158h-82v169z" />
    <glyph glyph-name="Tbar" unicode="&#x166;" horiz-adv-x="860" 
d="M572 792h216v-163h-216v-629h-284v629h-217v163h217v403h-265v276h813v-276h-264v-403z" />
    <glyph glyph-name="tbar" unicode="&#x167;" horiz-adv-x="614" 
d="M443 616h186v-163h-186v-453h-272v453h-164v163h164v237h-140v235h140v401h272v-401h162v-235h-162v-237z" />
    <glyph glyph-name="Utilde" unicode="&#x168;" horiz-adv-x="1311" 
d="M158 1471h281v-952q-1 -123 21 -174t72 -81t121 -31q71 0 125 34q54 35 74 87t21 200v917h281v-877q0 -222 -25 -308t-95 -166q-138 -157 -377 -157q-161 -1 -279 73t-169 184t-51 374v877zM498 1853q49 0 149 -28t166 -28t156 52l104 -156q-126 -108 -244 -108
q-63 0 -143 24t-102 28t-59 4q-88 0 -176 -52l-110 165q128 99 259 99z" />
    <glyph glyph-name="utilde" unicode="&#x169;" 
d="M137 1088h276v-524q0 -152 21 -212q44 -126 183 -126q138 0 185 128q17 47 17 201v533h274v-461q0 -285 -50 -401t-157 -186q-107 -68 -279 -68q-173 0 -283 80t-155 223q-32 99 -32 360v453zM457 1555q49 0 149 -28t166 -28t156 52l104 -156q-126 -108 -244 -108
q-63 0 -143 24q-81 24 -103 28t-58 4q-88 0 -176 -52l-110 165q128 99 259 99z" />
    <glyph glyph-name="Umacron" unicode="&#x16a;" horiz-adv-x="1311" 
d="M158 1471h281v-952q-1 -123 21 -174t72 -81t121 -31q71 0 125 34q54 35 74 87t21 200v917h281v-877q0 -222 -25 -308t-95 -166q-138 -157 -377 -157q-161 -1 -279 73t-169 184t-51 374v877zM372 1585v221h569v-221h-569z" />
    <glyph glyph-name="umacron" unicode="&#x16b;" 
d="M137 1088h276v-524q0 -152 21 -212q44 -126 183 -126q138 0 185 128q17 47 17 201v533h274v-461q0 -285 -50 -401t-157 -186q-107 -68 -279 -68q-173 0 -283 80t-155 223q-32 99 -32 360v453zM330 1287v221h569v-221h-569z" />
    <glyph glyph-name="Ubreve" unicode="&#x16c;" horiz-adv-x="1311" 
d="M158 1471h281v-952q-1 -123 21 -174t72 -81t121 -31q71 0 125 34q54 35 74 87t21 200v917h281v-877q0 -222 -25 -308t-95 -166q-138 -157 -377 -157q-161 -1 -279 73t-169 184t-51 374v877zM656 1784q134 0 186 82h221q-19 -127 -121 -204t-287 -77q-236 0 -342 133
q-51 64 -64 148h221q52 -82 186 -82z" />
    <glyph glyph-name="ubreve" unicode="&#x16d;" 
d="M137 1088h276v-524q0 -152 21 -212q44 -126 183 -126q138 0 185 128q17 47 17 201v533h274v-461q0 -285 -50 -401t-157 -186q-107 -68 -279 -68q-173 0 -283 80t-155 223q-32 99 -32 360v453zM615 1486q134 0 186 82h221q-20 -127 -122 -204t-286 -77q-236 0 -342 133
q-51 64 -64 148h221q52 -82 186 -82z" />
    <glyph glyph-name="Uring" unicode="&#x16e;" horiz-adv-x="1311" 
d="M158 1471h281v-952q-1 -123 21 -174t72 -81t121 -31q71 0 125 34q54 35 74 87t21 200v917h281v-877q0 -222 -25 -308t-95 -166q-138 -157 -377 -157q-161 -1 -279 73t-169 184t-51 374v877zM668 1903q-34 0 -58 -26q-24 -25 -24 -63t24 -64t58 -26t58 26t24 64t-24 63
q-24 26 -58 26zM668 2032q91 0 155 -66t64 -158q-1 -92 -65 -158t-154 -65q-90 -1 -154 65t-65 158q0 92 64 158t155 66z" />
    <glyph glyph-name="uring" unicode="&#x16f;" 
d="M137 1088h276v-524q0 -152 21 -212q44 -126 183 -126q138 0 185 128q17 47 17 201v533h274v-461q0 -285 -50 -401t-157 -186q-107 -68 -279 -68q-173 0 -283 80t-155 223q-32 99 -32 360v453zM571 1605q-34 0 -58 -26q-24 -25 -24 -63q1 -38 25 -64t57 -26t57 26t25 64
q0 38 -24 63q-24 26 -58 26zM571 1734q91 0 155 -66t64 -158t-64 -158t-155 -65q-91 -1 -155 65t-64 158t64 158t155 66z" />
    <glyph glyph-name="Udblacute" unicode="&#x170;" horiz-adv-x="1311" 
d="M158 1471h281v-952q-1 -123 21 -174t72 -81t121 -31q71 0 125 34q54 35 74 87t21 200v917h281v-877q0 -222 -25 -308t-95 -166q-138 -157 -377 -157q-161 -1 -279 73t-169 184t-51 374v877zM1014 1977h323l-365 -392h-197zM568 1977h323l-366 -392h-196z" />
    <glyph glyph-name="udblacute" unicode="&#x171;" 
d="M137 1088h276v-524q0 -152 21 -212q44 -126 183 -126q138 0 185 128q17 47 17 201v533h274v-461q0 -285 -50 -401t-157 -186q-107 -68 -279 -68q-173 0 -283 80t-155 223q-32 99 -32 360v453zM914 1679h323l-365 -392h-197zM468 1679h323l-366 -392h-196z" />
    <glyph glyph-name="Uogonek" unicode="&#x172;" horiz-adv-x="1311" 
d="M496 -216q0 105 113 181q-130 10 -240 77q-109 68 -160 178t-51 374v877h281v-952q-1 -123 21 -174t72 -81t121 -31q71 0 125 34q54 35 74 87t21 200v917h281v-877q0 -222 -25 -308t-95 -166q-104 -118 -258 -147q-99 -70 -99 -138q0 -41 29 -67t69 -26t93 27v-159
q-69 -15 -128 -15q-118 0 -181 54t-63 135z" />
    <glyph glyph-name="uogonek" unicode="&#x173;" 
d="M137 1088h276v-524q0 -152 21 -212q44 -126 183 -126q138 0 185 128q17 47 17 201v533h274v-461q0 -285 -50 -401t-157 -186q-51 -33 -115 -49q-125 -78 -125 -156q0 -41 29 -67t69 -26t93 27v-159q-69 -15 -128 -15q-118 0 -181 54t-63 125q0 122 124 198
q-329 10 -420 303q-32 99 -32 360v453z" />
    <glyph glyph-name="Wcircumflex" unicode="&#x174;" horiz-adv-x="1843" 
d="M56 1471h276l212 -939l263 939h233l266 -939l210 939h276l-331 -1471h-269l-271 951l-266 -951h-266zM515 1585l300 283h219l298 -283h-298l-108 131l-111 -131h-300z" />
    <glyph glyph-name="wcircumflex" unicode="&#x175;" horiz-adv-x="1638" 
d="M17 1088h267l219 -619l236 619h163l231 -612l219 612h269l-397 -1088h-173l-232 620l-239 -620h-171zM410 1287l300 283h219l298 -283h-298l-108 131l-111 -131h-300z" />
    <glyph glyph-name="Ycircumflex" unicode="&#x176;" horiz-adv-x="1270" 
d="M777 0h-282v637l-432 834h301l274 -528l272 528h297l-430 -834v-637zM226 1585l300 283h219l298 -283h-298l-108 131l-111 -131h-300z" />
    <glyph glyph-name="ycircumflex" unicode="&#x177;" horiz-adv-x="1188" 
d="M17 1088h279l283 -683l312 683h280l-682 -1486h-282l224 479zM186 1287l300 283h219l298 -283h-298l-108 131l-111 -131h-300z" />
    <glyph glyph-name="Ydieresis" unicode="&#x178;" horiz-adv-x="1270" 
d="M777 0h-282v637l-432 834h301l274 -528l272 528h297l-430 -834v-637zM866 1871q60 0 102 -42q42 -41 42 -101t-42 -102t-102 -42t-101 42q-42 42 -42 102t42 101q41 42 101 42zM424 1871q60 0 101 -42q42 -41 42 -101t-42 -102q-41 -42 -101 -42t-102 42t-42 102t42 101
q42 42 102 42z" />
    <glyph glyph-name="Zacute" unicode="&#x179;" horiz-adv-x="1024" 
d="M90 1471h890l-525 -1202h491v-269h-899l523 1194h-480v277zM578 1977h323l-366 -392h-196z" />
    <glyph glyph-name="zacute" unicode="&#x17a;" horiz-adv-x="942" 
d="M91 1088h835l-490 -857h462v-231h-882l492 857h-417v231zM478 1679h323l-366 -392h-196z" />
    <glyph glyph-name="Zdot" unicode="&#x17b;" horiz-adv-x="1024" 
d="M90 1471h890l-525 -1202h491v-269h-899l523 1194h-480v277zM486 1871q60 0 102 -42q42 -41 42 -101t-42 -102t-102 -42t-101 42q-42 42 -42 102t42 101q41 42 101 42z" />
    <glyph glyph-name="zdot" unicode="&#x17c;" horiz-adv-x="942" 
d="M91 1088h835l-490 -857h462v-231h-882l492 857h-417v231zM486 1573q60 0 102 -42q42 -41 42 -101t-42 -102t-102 -42t-101 42q-42 42 -42 102t42 101q41 42 101 42z" />
    <glyph glyph-name="Zcaron" unicode="&#x17d;" horiz-adv-x="1024" 
d="M90 1471h890l-525 -1202h491v-269h-899l523 1194h-480v277zM103 1868h300l111 -132l108 132h298l-298 -283h-219z" />
    <glyph glyph-name="zcaron" unicode="&#x17e;" horiz-adv-x="942" 
d="M91 1088h835l-490 -857h462v-231h-882l492 857h-417v231zM62 1570h300l111 -132l108 132h298l-298 -283h-219z" />
    <glyph glyph-name="longs" unicode="&#x17f;" horiz-adv-x="491" 
d="M462 1306q-46 0 -63 -20t-17 -104v-1182h-273v1146q0 176 14.5 237.5t77.5 107t163 45.5t202 -39v-208q-58 17 -104 17z" />
    <glyph glyph-name="florin" unicode="&#x192;" horiz-adv-x="1147" 
d="M914 1273q-49 0 -73 -34t-41 -156l-21 -149h224l-34 -234h-226l-106 -756q-20 -146 -59 -219t-102 -112t-129 -39t-126 19t-149 71l34 242q95 -74 147 -74t74 29t36 132l107 707h-227l34 234h227l33 249q26 187 95.5 270t198.5 83q65 0 117.5 -16.5t129.5 -66.5l-33 -239
q-82 59 -131 59z" />
    <glyph glyph-name="Aringacute" unicode="&#x1fa;" horiz-adv-x="1515" 
d="M760 1081l-196 -505h391zM757 1729q-34 0 -58 -26q-24 -25 -24 -63q1 -38 25 -64t57 -26t57 26t25 64q0 38 -24 63q-24 26 -58 26zM538 1630q0 96 64 162t155 66t155 -66t64 -161q0 -96 -74 -164l564 -1467h-291l-115 303h-600l-120 -303h-291l565 1466q-76 67 -76 164z
M805 2297h323l-366 -392h-196z" />
    <glyph glyph-name="aringacute" unicode="&#x1fb;" horiz-adv-x="1352" 
d="M656 864q-128 0 -212 -90t-84 -230t86 -231t212 -91q127 0 212 90t85 232q0 144 -85 232q-86 88 -214 88zM591 1116q205 0 351 -148v120h272v-1088h-272v115q-151 -143 -348 -143q-198 0 -352 164t-154 410q0 248 149 409t354 161zM676 1557q-34 0 -58 -26
q-24 -25 -24 -63t24 -64t58 -26t58 26t24 64t-24 63q-24 26 -58 26zM676 1686q91 0 155 -66t64 -158q-1 -92 -65 -158t-154 -65q-90 -1 -154 65t-65 158q0 92 64 158t155 66zM724 2168h323l-366 -392h-196z" />
    <glyph glyph-name="AEacute" unicode="&#x1fc;" horiz-adv-x="1843" 
d="M941 579v644l-317 -644h317zM1737 1471v-274h-517v-267h517v-269h-517v-387h517v-274h-796v304h-449l-147 -304h-288l717 1471h963zM1157 1977h323l-366 -392h-196z" />
    <glyph glyph-name="aeacute" unicode="&#x1fd;" horiz-adv-x="2212" 
d="M682 868q-134 0 -224 -92t-91 -233q1 -140 89 -231t226 -91t226 90q86 89 86 233t-88 234q-90 90 -224 90zM1573 883q-109 0 -188 -53t-116 -154h591q-26 93 -102 150t-185 57zM629 1116q221 0 363 -170v142h251v-80q136 108 308 108t305 -76q134 -76 206 -212
q72 -135 72 -303l-2 -62h-876q24 -119 106 -187t212 -67q74 0 134 25t122 85l230 -108q-104 -152 -288 -210q-92 -29 -200 -29q-200 0 -329 106v-78h-251v138q-79 -90 -164 -128t-196 -38q-231 0 -387 162t-156 405q-1 243 159 410t381 167zM1160 1679h323l-366 -392h-196z
" />
    <glyph glyph-name="Oslashacute" unicode="&#x1fe;" horiz-adv-x="1720" 
d="M867 234q198 0 338 144t140 355q0 169 -100 305l-625 -738q112 -66 247 -66zM862 1234q-205 0 -344 -142t-139 -348t114 -339l636 749q-113 80 -267 80zM1625 720q1 -312 -221 -534q-222 -223 -537 -223q-239 0 -426 125l-171 -202l-127 106l171 202q-103 105 -160 246
t-57 296q0 212 102 388q103 176 281 280t400 104t426 -145l161 190l126 -104l-164 -198q196 -219 196 -531zM909 1977h323l-366 -392h-196z" />
    <glyph glyph-name="oslashacute" unicode="&#x1ff;" horiz-adv-x="1352" 
d="M675 226q126 0 211 89t85 229q0 82 -32 152l-395 -441q63 -29 131 -29zM675 859q-127 -1 -212 -89t-85 -226q0 -94 45 -177l406 453q-68 39 -154 39zM1247 545q-1 -154 -77 -288q-76 -133 -208 -209t-295 -76t-298 88l-130 -145l-125 107l130 146q-138 159 -138 375
q0 254 186 423q164 150 379 150q178 0 331 -103l126 140l123 -110l-128 -143q124 -160 124 -355zM727 1679h323l-366 -392h-196z" />
    <glyph glyph-name="circumflex" unicode="&#x2c6;" horiz-adv-x="1106" 
d="M144 1287l300 283h219l298 -283h-298l-108 131l-111 -131h-300z" />
    <glyph glyph-name="caron" unicode="&#x2c7;" horiz-adv-x="1106" 
d="M144 1570h300l111 -132l108 132h298l-298 -283h-219z" />
    <glyph glyph-name="macron" unicode="&#x2c9;" horiz-adv-x="860" 
d="M145 1287v221h569v-221h-569z" />
    <glyph glyph-name="breve" unicode="&#x2d8;" horiz-adv-x="983" 
d="M492 1486q134 0 186 82h221q-19 -127 -121.5 -204t-286.5 -77q-236 0 -314.5 98.5t-91.5 182.5h221q52 -82 186 -82z" />
    <glyph glyph-name="dotaccent" unicode="&#x2d9;" horiz-adv-x="573" 
d="M286 1573q60 0 102 -41.5t42 -101.5t-42 -102t-102 -42t-101.5 42t-41.5 102t41.5 101.5t101.5 41.5z" />
    <glyph glyph-name="ring" unicode="&#x2da;" horiz-adv-x="737" 
d="M368 1605q-34 0 -58 -25.5t-24 -63.5t24.5 -64t57.5 -26t57.5 26t24.5 64t-24 63.5t-58 25.5zM368 1734q91 0 155 -66t64 -158t-64.5 -157.5t-154.5 -65.5t-154.5 65.5t-64.5 157.5t64 158t155 66z" />
    <glyph glyph-name="ogonek" unicode="&#x2db;" horiz-adv-x="696" 
d="M342 -165q0 -41 29 -67t69 -26t93 27v-159q-69 -15 -128 -15q-118 0 -181 54t-63 125q0 147 177 226h144q-140 -83 -140 -165z" />
    <glyph glyph-name="tilde" unicode="&#x2dc;" horiz-adv-x="983" 
d="M334 1555q49 0 149 -28t166 -28t156 52l104 -156q-126 -108 -244 -108q-63 0 -143 24t-102 28t-59 4q-88 0 -176 -52l-110 165q128 99 259 99z" />
    <glyph glyph-name="hungarumlaut" unicode="&#x2dd;" horiz-adv-x="1434" 
d="M1014 1679h323l-365 -392h-197zM568 1679h323l-366 -392h-196z" />
    <glyph glyph-name="tonos" unicode="&#x384;" horiz-adv-x="860" 
d="M571 1639l-43 -382h-196l-44 382h283z" />
    <glyph glyph-name="dieresistonos" unicode="&#x385;" horiz-adv-x="860" 
d="M729 1258q-54 0 -91.5 37.5t-37.5 91.5t37.5 91.5t91.5 37.5t91.5 -37t37.5 -91t-37.5 -92t-91.5 -38zM260 1388q0 -54 -38 -92t-92 -38t-91.5 37.5t-37.5 91.5t37.5 91.5t91.5 37.5t92 -37t38 -91zM571 1639l-43 -382h-196l-44 382h283z" />
    <glyph glyph-name="Alphatonos" unicode="&#x386;" horiz-adv-x="1515" 
d="M760 1081l-196 -505h391zM616 1471h284l566 -1471h-291l-115 303h-600l-120 -303h-291zM385 1508l-43 -382h-196l-44 382h283z" />
    <glyph glyph-name="anoteleia" unicode="&#x387;" horiz-adv-x="573" 
d="M444 959q0 -65 -46 -110.5t-112 -45.5t-111 44.5t-45 110.5t45 112t111 46t112 -46t46 -111z" />
    <glyph glyph-name="Epsilontonos" unicode="&#x388;" horiz-adv-x="1228" 
d="M332 1471h803v-274h-525v-266h525v-269h-525v-387h525v-275h-803v1471zM183 1508l-43 -382h-196l-44 382h283z" />
    <glyph glyph-name="Etatonos" unicode="&#x389;" horiz-adv-x="1556" 
d="M330 1471h284v-555h492v555h283v-1471h-283v645h-492v-645h-284v1471zM183 1508l-43 -382h-196l-44 382h283z" />
    <glyph glyph-name="Iotatonos" unicode="&#x38a;" horiz-adv-x="736" 
d="M311 1471h278v-1471h-278v1471zM183 1508l-43 -382h-196l-44 382h283z" />
    <glyph glyph-name="Omicrontonos" unicode="&#x38c;" horiz-adv-x="1793" 
d="M932 1234q-203 0 -342 -142t-139 -374t175 -373q136 -111 324 -111t327 144q140 144 140 354t-141 356t-344 146zM936 1508q312 0 536 -226t225 -550t-221 -546q-222 -223 -546 -223t-542 229q-219 229 -219 544q0 211 102 388q103 176 281 280t384 104zM183 1508
l-43 -382h-196l-44 382h283z" />
    <glyph glyph-name="Upsilontonos" unicode="&#x38e;" horiz-adv-x="1443" 
d="M950 0h-282v637l-432 834h301l274 -528l272 528h297l-430 -834v-637zM183 1508l-43 -382h-196l-44 382h283z" />
    <glyph glyph-name="Omegatonos" unicode="&#x38f;" horiz-adv-x="1824" 
d="M1724 277v-277h-677v333q368 186 368 503q0 181 -125 289t-342 108q-218 -1 -342 -111t-124 -286q0 -315 368 -503v-333h-677v277h373q-346 222 -346 560q0 303 209 487t545 183q336 0 540 -187t203 -483q0 -338 -346 -560h373zM183 1508l-43 -382h-196l-44 382h283z" />
    <glyph glyph-name="iotadieresistonos" unicode="&#x390;" horiz-adv-x="491" 
d="M108 1088h274v-1088h-274v1088zM545 1258q-53 0 -91 38t-38 91t38 91t91 38q54 0 92 -36q37 -38 37 -92t-38 -92t-91 -38zM76 1388q0 -54 -38 -92t-92 -38t-92 38t-37 91q-1 53 37 91t92 38t92 -36q38 -38 38 -92zM387 1639l-43 -382h-196l-44 382h283z" />
    <glyph glyph-name="Alpha" unicode="&#x391;" horiz-adv-x="1515" 
d="M760 1081l-196 -505h391zM616 1471h284l566 -1471h-291l-115 303h-600l-120 -303h-291z" />
    <glyph glyph-name="Beta" unicode="&#x392;" horiz-adv-x="1188" 
d="M813 439q0 205 -307 205h-58v-377h70q174 0 234 44t61 128zM448 1204v-310h61q101 0 151 43t50 115t-47 112t-143 40h-72zM1088 429q0 -124 -64 -226q-64 -103 -165 -153t-279 -50h-412v1471h231q201 0 294 -26q132 -35 210 -130t78 -224q0 -168 -151 -281
q258 -121 258 -381z" />
    <glyph glyph-name="Gamma" unicode="&#x393;" horiz-adv-x="948" 
d="M167 1471h730v-274h-453v-1197h-277v1471z" />
    <glyph glyph-name="Delta" unicode="&#x394;" horiz-adv-x="1515" 
d="M1117 275l-360 806l-357 -806h717zM1444 0h-1368v235l557 1236h251l560 -1236v-235z" />
    <glyph glyph-name="Epsilon" unicode="&#x395;" horiz-adv-x="1065" 
d="M169 1471h803v-274h-525v-266h525v-269h-525v-387h525v-275h-803v1471z" />
    <glyph glyph-name="Zeta" unicode="&#x396;" horiz-adv-x="1024" 
d="M90 1471h890l-525 -1202h491v-269h-899l523 1194h-480v277z" />
    <glyph glyph-name="Eta" unicode="&#x397;" horiz-adv-x="1393" 
d="M167 1471h284v-555h492v555h283v-1471h-283v645h-492v-645h-284v1471z" />
    <glyph glyph-name="Theta" unicode="&#x398;" horiz-adv-x="1720" 
d="M598 876h526v-269h-526v269zM378 728q0 -220 145.5 -357t345.5 -137t337.5 146t137.5 354t-139.5 354t-346.5 146t-343.5 -143t-136.5 -363zM1624 732q0 -324 -220 -546.5t-542 -222.5t-544 223.5t-222 549.5t226 549t542 223t538 -226t222 -550z" />
    <glyph glyph-name="Iota" unicode="&#x399;" horiz-adv-x="573" 
d="M148 1471h278v-1471h-278v1471z" />
    <glyph glyph-name="Kappa" unicode="&#x39a;" horiz-adv-x="1270" 
d="M170 1471h283v-506l399 506h337l-514 -656l564 -815h-332l-454 653v-653h-283v1471z" />
    <glyph glyph-name="Lambda" unicode="&#x39b;" horiz-adv-x="1421" 
d="M1120 0l-407 1081l-414 -1081h-297l567 1471h284l566 -1471h-299z" />
    <glyph glyph-name="Mu" unicode="&#x39c;" horiz-adv-x="1843" 
d="M310 1471h274l340 -1026l345 1026h270l248 -1471h-270l-158 929l-313 -929h-247l-309 929l-161 -929h-273z" />
    <glyph glyph-name="Nu" unicode="&#x39d;" horiz-adv-x="1515" 
d="M169 1471h268l631 -968v968h280v-1471h-269l-630 965v-965h-280v1471z" />
    <glyph glyph-name="Xi" unicode="&#x39e;" horiz-adv-x="1083" 
d="M973 0h-863v275h863v-275zM973 662h-863v269h863v-269zM973 1197h-863v274h863v-274z" />
    <glyph glyph-name="Omicron" unicode="&#x39f;" horiz-adv-x="1720" 
d="M859 1234q-203 0 -342 -142t-139 -374t175 -373q135 -111 323 -111t328 144t140 354t-141 356t-344 146zM863 1508q313 0 537 -226t224 -550t-222 -546q-222 -223 -544 -223q-324 0 -543 229t-219 544q0 211 102 388q102 176 280 280t385 104z" />
    <glyph glyph-name="Pi" unicode="&#x3a0;" horiz-adv-x="1393" 
d="M167 1471h1059v-1471h-283v1209h-492v-1209h-284v1471z" />
    <glyph glyph-name="Rho" unicode="&#x3a1;" horiz-adv-x="1147" 
d="M447 896h89q105 0 146 15q88 32 88 125t-66 132q-48 29 -178 29h-79v-301zM167 1471h297q242 -1 348 -45t168 -144t61 -246t-81 -248t-218 -142q-81 -23 -295 -23v-623h-280v1471z" />
    <glyph glyph-name="Sigma" unicode="&#x3a3;" horiz-adv-x="1027" 
d="M934 1471v-274h-458l242 -464l-245 -458h474v-275h-921l388 734l-382 737h902z" />
    <glyph glyph-name="Tau" unicode="&#x3a4;" horiz-adv-x="860" 
d="M23 1471h813v-276h-268v-1195h-284v1195h-261v276z" />
    <glyph glyph-name="Upsilon" unicode="&#x3a5;" horiz-adv-x="1270" 
d="M777 0h-282v637l-432 834h301l274 -528l272 528h297l-430 -834v-637z" />
    <glyph glyph-name="Phi" unicode="&#x3a6;" horiz-adv-x="1760" 
d="M362 744q0 -302 376 -339v679q-376 -33 -376 -340zM1398 744q0 304 -376 340v-679q376 35 376 339zM1022 0h-284v148q-313 30 -487 184t-174 410t186.5 418.5t474.5 179.5v131h284v-131q299 -22 480 -180.5t181 -423.5t-176 -422t-485 -166v-148z" />
    <glyph glyph-name="Chi" unicode="&#x3a7;" horiz-adv-x="1393" 
d="M72 1471h315l308 -471l311 471h315l-468 -712l497 -759h-315l-340 517l-337 -517h-317l497 759z" />
    <glyph glyph-name="Psi" unicode="&#x3a8;" horiz-adv-x="1682" 
d="M981 0h-280v369q-571 68 -571 602v500h281v-467q0 -196 65.5 -273.5t224.5 -101.5v842h280v-843q161 27 225.5 103t64.5 273v467h281v-509q0 -524 -571 -593v-369z" />
    <glyph glyph-name="Omega" unicode="&#x3a9;" horiz-adv-x="1751" 
d="M1651 277v-277h-677v333q368 186 368 503q0 181 -125 289t-342 108t-341.5 -110.5t-124.5 -286.5q0 -315 368 -503v-333h-677v277h373q-346 222 -346 560q0 303 209 486.5t545 183.5t539.5 -187t203.5 -483q0 -338 -346 -560h373z" />
    <glyph glyph-name="Iotadieresis" unicode="&#x3aa;" horiz-adv-x="573" 
d="M148 1471h278v-1471h-278v1471zM508 1871q60 0 102 -42q42 -41 42 -101t-42 -102t-102 -42t-101 42q-42 42 -42 102t42 101q41 42 101 42zM66 1871q60 0 101 -42q42 -41 42 -101t-42 -102q-41 -42 -101 -42t-102 42t-42 102t42 101q42 42 102 42z" />
    <glyph glyph-name="Upsilondieresis" unicode="&#x3ab;" horiz-adv-x="1270" 
d="M777 0h-282v637l-432 834h301l274 -528l272 528h297l-430 -834v-637zM866 1871q60 0 102 -42q42 -41 42 -101t-42 -102t-102 -42t-101 42q-42 42 -42 102t42 101q41 42 101 42zM424 1871q60 0 101 -42q42 -41 42 -101t-42 -102q-41 -42 -101 -42t-102 42t-42 102t42 101
q42 42 102 42z" />
    <glyph glyph-name="alphatonos" unicode="&#x3ac;" horiz-adv-x="1352" 
d="M656 864q-128 0 -212 -90t-84 -230t86 -231t212 -91q127 0 212 90t85 232q0 144 -85 232q-86 88 -214 88zM591 1116q205 0 351 -148v120h272v-1088h-272v115q-151 -143 -348 -143q-198 0 -352 164t-154 410q0 248 149 409t354 161zM817 1639l-43 -382h-196l-44 382h283z
" />
    <glyph glyph-name="epsilontonos" unicode="&#x3ad;" horiz-adv-x="897" 
d="M532 -28q-204 0 -325 90t-121 248q0 196 203 271q-152 88 -152 229q1 142 105 224t270 82t307 -112l-108 -188q-101 65 -162 65t-97 -33t-35 -82q0 -110 137 -110h54v-195h-71q-62 1 -103 -35t-41 -92q1 -56 43 -88t109 -32q97 0 213 91l122 -209q-144 -124 -348 -124z
M590 1639l-43 -382h-196l-44 382h283z" />
    <glyph glyph-name="etatonos" unicode="&#x3ae;" 
d="M138 1088h272v-111q165 139 319 139t264 -98t110 -299v-1117h-270v875q0 147 -9 221q-8 74 -54 122t-127 47q-81 0 -137 -49t-76 -127t-20 -254v-437h-272v1088zM756 1639l-43 -382h-196l-44 382h283z" />
    <glyph glyph-name="iotatonos" unicode="&#x3af;" horiz-adv-x="491" 
d="M108 1088h274v-1088h-274v1088zM387 1639l-43 -382h-196l-44 382h283z" />
    <glyph glyph-name="upsilondieresistonos" unicode="&#x3b0;" 
d="M110 1089h272v-512q0 -203 58 -277t180 -74q254 0 254 298q0 239 -270 369l148 227q392 -216 392 -599q0 -237 -140 -393t-384 -156q-325 0 -448 232q-62 116 -62 348v537zM914 1258q-54 0 -92 38t-37 91q-1 53 37 91t92 38t92 -36q38 -38 38 -92t-38 -92t-92 -38z
M445 1388q1 -54 -37 -92t-92 -38t-92 38t-38 91t38 91t91 38q54 0 92 -36q38 -38 38 -92zM756 1639l-43 -382h-196l-44 382h283z" />
    <glyph glyph-name="alpha" unicode="&#x3b1;" horiz-adv-x="1352" 
d="M656 864q-128 0 -212 -90t-84 -230t86 -231t212 -91q127 0 212 90t85 232q0 144 -85 232q-86 88 -214 88zM591 1116q205 0 351 -148v120h272v-1088h-272v115q-151 -143 -348 -143q-198 0 -352 164t-154 410q0 248 149 409t354 161z" />
    <glyph glyph-name="beta" unicode="&#x3b2;" horiz-adv-x="1267" 
d="M528 716v231q207 31 207 191q0 65 -38.5 106.5t-103.5 41.5q-191 0 -191 -265v-538q0 -120 65.5 -190t182.5 -70t188.5 63t71.5 166q0 264 -375 264h-7zM402 -398h-272v1470q0 210 123 337t322 127t315.5 -104t116.5 -262t-161 -275q336 -101 336 -414q0 -230 -137 -369
t-357 -139q-179 0 -286 110v-481z" />
    <glyph glyph-name="gamma" unicode="&#x3b3;" horiz-adv-x="1147" 
d="M710 -398h-274v511l-415 975h278l275 -642l274 642h277l-415 -974v-512z" />
    <glyph glyph-name="delta" unicode="&#x3b4;" horiz-adv-x="1228" 
d="M613 739q-106 0 -181 -76.5t-75 -185.5t73.5 -183.5t183.5 -74.5t183.5 74.5t73.5 184.5t-76 185.5t-182 75.5zM252 1174q0 163 127.5 262.5t328.5 99.5q130 0 308 -43l-71 -246q-134 34 -226 34q-195 0 -195 -117q0 -69 58 -106.5t194 -90.5q367 -143 367 -487
q0 -214 -154.5 -361t-374.5 -147t-374.5 145t-154.5 343q0 310 312 438q-145 113 -145 276z" />
    <glyph glyph-name="epsilon" unicode="&#x3b5;" horiz-adv-x="897" 
d="M532 -28q-204 0 -325 90t-121 248q0 196 203 271q-152 88 -152 229t104.5 223.5t270.5 82.5t307 -112l-108 -188q-101 65 -162 65t-96.5 -33t-35.5 -82q0 -110 137 -110h54v-195h-71q-62 0 -103 -35.5t-41 -91.5t42.5 -88t109.5 -32q97 0 213 91l122 -209
q-144 -124 -348 -124z" />
    <glyph glyph-name="zeta" unicode="&#x3b6;" horiz-adv-x="974" 
d="M572 -183q136 0 136 89q0 63 -69 85q-201 46 -312 95.5t-181 164t-70 286.5t110.5 335t387.5 381h-408v255h785v-227q-309 -218 -456 -392t-147 -347q0 -124 55 -175t212 -93q229 -61 294 -144.5t65 -207.5q0 -167 -111 -257.5t-292 -90.5q-98 0 -231 33l58 241
q77 -31 174 -31z" />
    <glyph glyph-name="eta" unicode="&#x3b7;" 
d="M138 1088h272v-111q165 139 319 139t264 -98t110 -299v-1117h-270v875q0 148 -9 221.5t-54.5 121t-126.5 47.5t-136.5 -49t-76 -127t-20.5 -254v-437h-272v1088z" />
    <glyph glyph-name="theta" unicode="&#x3b8;" horiz-adv-x="1341" 
d="M668 226q264 0 305 399h-610q41 -399 305 -399zM670 1282q-268 0 -307 -402h612q-37 402 -305 402zM670 -28q-284 0 -434.5 207t-150.5 569t153.5 575t435.5 213t432 -203t150 -579t-151 -579t-435 -203z" />
    <glyph glyph-name="iota" unicode="&#x3b9;" horiz-adv-x="491" 
d="M108 1088h274v-1088h-274v1088z" />
    <glyph glyph-name="kappa" unicode="&#x3ba;" horiz-adv-x="1188" 
d="M140 1089h273v-450l402 449h342l-468 -522l525 -566h-339l-462 501v-501h-273v1089z" />
    <glyph glyph-name="lambda" unicode="&#x3bb;" horiz-adv-x="1188" 
d="M1171 0h-280l-312 683l-283 -683h-279l414 1007l-234 501h282z" />
    <glyph glyph-name="mu" unicode="&#x3bc;" 
d="M1097 0h-272v111q-130 -130 -266 -130q-100 0 -157 63v-442h-270v1486h270v-477q0 -148 9 -221.5t54.5 -121t126.5 -47.5t136.5 49t76 127t20.5 254v437h272v-1088z" />
    <glyph glyph-name="nu" unicode="&#x3bd;" horiz-adv-x="1147" 
d="M21 1088h278l275 -642l274 642h277l-463 -1088h-177z" />
    <glyph glyph-name="xi" unicode="&#x3be;" horiz-adv-x="974" 
d="M573 -183q135 0 135 88q0 41 -33.5 59.5t-182.5 55.5q-416 99 -416 440q0 273 251 411q-176 107 -176 293t128 279t340 93q156 0 320 -46l-74 -244q-126 34 -254 34q-188 0 -188 -144q0 -79 79.5 -123t207.5 -44h147v-255h-226q-133 0 -208 -59t-75 -159t54 -144t217 -87
q232 -61 293.5 -142.5t61.5 -200.5q0 -168 -111.5 -258t-296.5 -90q-100 0 -226 34l58 240q86 -31 175 -31z" />
    <glyph glyph-name="omicron" unicode="&#x3bf;" horiz-adv-x="1311" 
d="M654 859q-128 -1 -212 -89t-85 -228t83 -228t212 -88t213 89t85 229t-84 228t-212 87zM649 1116q153 0 289 -77t212 -209t76 -286t-76 -287t-209 -209q-132 -76 -291 -76q-234 0 -400 166t-165 414q-1 246 175 405t389 159z" />
    <glyph glyph-name="pi" unicode="&#x3c0;" horiz-adv-x="1382" 
d="M1322 833h-180v-833h-272v833h-368v-833h-272v833h-170v255h1262v-255z" />
    <glyph glyph-name="rho" unicode="&#x3c1;" horiz-adv-x="1336" 
d="M382 544q0 -138 81 -228t213 -90t215.5 90t83.5 228t-82.5 226.5t-212.5 88.5t-214 -88.5t-84 -226.5zM384 -398h-274v941q0 237 164 405t400 168t406.5 -166t170.5 -410t-149 -406t-383 -162q-186 0 -335 155v-525z" />
    <glyph glyph-name="sigma1" unicode="&#x3c2;" horiz-adv-x="1199" 
d="M676 862q-144 0 -229.5 -73.5t-85.5 -198.5t71.5 -196t273.5 -129t274 -139.5t72 -203.5q0 -167 -111 -257.5t-292 -90.5q-98 0 -231 33l58 241q74 -31 162 -31t118 20t30 69q0 63 -150 98q-296 69 -423.5 202.5t-127.5 349.5q0 261 162.5 410.5t432.5 149.5
q142 0 276.5 -66t214.5 -182l-227 -125q-124 119 -268 119z" />
    <glyph glyph-name="sigma" unicode="&#x3c3;" horiz-adv-x="1468" 
d="M654 859q-132 0 -214.5 -90t-82.5 -227t81.5 -226.5t213.5 -89.5t215 90t83 228t-82 226.5t-214 88.5zM1408 833h-272q90 -98 90 -288q0 -235 -165 -404t-406 -169t-405.5 166t-164.5 407t169 406t395 165q93 0 179 -28h580v-255z" />
    <glyph glyph-name="tau" unicode="&#x3c4;" horiz-adv-x="852" 
d="M792 833h-230v-833h-272v833h-230v255h732v-255z" />
    <glyph glyph-name="upsilon" unicode="&#x3c5;" 
d="M110 1089h272v-512q0 -203 58 -277t180 -74q254 0 254 298q0 239 -270 369l148 227q392 -216 392 -599q0 -237 -139.5 -393t-384.5 -156q-325 0 -417.5 174t-92.5 406v537z" />
    <glyph glyph-name="phi" unicode="&#x3c6;" horiz-adv-x="1632" 
d="M1275 543q0 293 -328 314v-625q328 44 328 311zM947 -398h-272v376q-590 61 -590 568q0 171 107.5 320t301.5 242l76 -265q-213 -124 -213 -300q0 -138 74.5 -211t243.5 -100v877q77 7 139 7q342 0 537.5 -149.5t195.5 -420.5q0 -486 -600 -569v-375z" />
    <glyph glyph-name="chi" unicode="&#x3c7;" horiz-adv-x="1147" 
d="M1100 1088l-381 -702l427 -784h-302l-273 530l-272 -530h-298l423 780l-384 706h302l230 -452l229 452h299z" />
    <glyph glyph-name="psi" unicode="&#x3c8;" horiz-adv-x="1560" 
d="M916 -398h-272v376q-534 60 -534 578v532h272v-460q0 -234 66.5 -302t195.5 -84v846h272v-847q163 23 212.5 106t49.5 281v460h272v-541q0 -507 -534 -569v-376z" />
    <glyph glyph-name="omega" unicode="&#x3c9;" horiz-adv-x="1756" 
d="M578 -28q-234 0 -365 141t-131 399t169.5 425.5t463.5 181.5l21 -258q-382 -48 -382 -363q0 -280 213 -280q176 0 176 276v131h269v-131q0 -276 177 -276q213 0 213 280q0 168 -92 251.5t-290 111.5l21 258q290 -14 461.5 -180.5t171.5 -425.5t-131 -400t-354 -141
t-311 161q-101 -161 -300 -161z" />
    <glyph glyph-name="iotadieresis" unicode="&#x3ca;" horiz-adv-x="491" 
d="M108 1088h274v-1088h-274v1088zM468 1573q60 0 101 -42q42 -41 42 -101t-42 -102q-41 -42 -101 -42t-102 42t-42 102t42 101q42 42 102 42zM24 1573q60 0 102 -42q42 -41 42 -101t-42 -102t-102 -42t-101 42q-42 42 -42 102t42 101q41 42 101 42z" />
    <glyph glyph-name="upsilondieresis" unicode="&#x3cb;" 
d="M110 1089h272v-512q0 -203 58 -277t180 -74q254 0 254 298q0 239 -270 369l148 227q392 -216 392 -599q0 -237 -140 -393t-384 -156q-325 0 -448 232q-62 116 -62 348v537zM836 1573q60 0 101 -42q42 -41 42 -101t-42 -102q-41 -42 -101 -42t-102 42t-42 102t42 101
q42 42 102 42zM392 1573q60 0 102 -42q42 -41 42 -101t-42 -102t-102 -42t-101 42q-42 42 -42 102t42 101q41 42 101 42z" />
    <glyph glyph-name="omicrontonos" unicode="&#x3cc;" horiz-adv-x="1311" 
d="M654 859q-128 -1 -212 -89t-85 -228t83 -228t212 -88t213 89t85 229t-84 228t-212 87zM649 1116q153 0 289 -77t212 -209t76 -286t-76 -287t-209 -209q-132 -76 -291 -76q-234 0 -400 166t-165 414q-1 246 175 405t389 159zM797 1639l-43 -382h-196l-44 382h283z" />
    <glyph glyph-name="upsilontonos" unicode="&#x3cd;" 
d="M110 1089h272v-512q0 -203 58 -277t180 -74q254 0 254 298q0 239 -270 369l148 227q392 -216 392 -599q0 -237 -140 -393t-384 -156q-325 0 -448 232q-62 116 -62 348v537zM756 1639l-43 -382h-196l-44 382h283z" />
    <glyph glyph-name="omegatonos" unicode="&#x3ce;" horiz-adv-x="1756" 
d="M578 -28q-234 0 -365 141t-131 399t170 426q170 167 463 181l21 -258q-382 -48 -382 -363q0 -280 213 -280q176 0 176 276v131h269v-131q0 -276 177 -276q213 0 213 280q0 168 -92 252t-290 111l21 258q289 -15 461 -181t172 -425t-131 -400t-354 -141t-311 161
q-101 -161 -300 -161zM1019 1639l-43 -382h-196l-44 382h283z" />
    <glyph glyph-name="afii10023" unicode="&#x401;" horiz-adv-x="1065" 
d="M169 1471h803v-274h-525v-266h525v-269h-525v-387h525v-275h-803v1471zM790 1871q60 0 102 -42q42 -41 42 -101t-42 -102t-102 -42t-101 42q-42 42 -42 102t42 101q41 42 101 42zM348 1871q60 0 101 -42q42 -41 42 -101t-42 -102q-41 -42 -101 -42t-102 42t-42 102
t42 101q42 42 102 42z" />
    <glyph glyph-name="afii10051" unicode="&#x402;" horiz-adv-x="1413" 
d="M569 0h-285v1195h-264v276h813v-276h-264v-279h120q251 0 382 -43t198.5 -157t67.5 -304t-89 -318t-265 -128q-112 0 -268 47l85 234q66 -24 108 -24q142 0 142 189t-117 211t-270 22h-94v-645z" />
    <glyph glyph-name="afii10052" unicode="&#x403;" horiz-adv-x="948" 
d="M167 1471h730v-274h-453v-1197h-277v1471zM691 1977h323l-366 -392h-196z" />
    <glyph glyph-name="afii10053" unicode="&#x404;" horiz-adv-x="1597" 
d="M876 -37q-351 0 -565.5 221.5t-214.5 560.5t235 551t549 212q178 0 350 -77t291 -219l-196 -187q-195 211 -450 211q-186 0 -325.5 -117t-159.5 -268h564v-255h-564q57 -191 193 -277.5t297 -86.5q241 0 445 211l190 -198q-172 -170 -322 -226t-317 -56z" />
    <glyph glyph-name="afii10054" unicode="&#x405;" horiz-adv-x="1065" 
d="M510 1240q-55 0 -90 -30t-35 -66q-1 -38 29 -76t196 -178t199 -174q85 -86 121 -164t35 -172q0 -181 -125 -299t-326 -118q-158 0 -274 77t-199 242l235 142q106 -195 244 -195q72 0 121 42q49 43 49 95t-37 102t-163 153q-240 197 -310 303t-70 212q0 152 116 262
t288 110q110 0 210 -51t215 -186l-207 -183q-109 152 -222 152z" />
    <glyph glyph-name="afii10055" unicode="&#x406;" horiz-adv-x="573" 
d="M148 1471h278v-1471h-278v1471z" />
    <glyph glyph-name="afii10056" unicode="&#x407;" horiz-adv-x="573" 
d="M148 1471h278v-1471h-278v1471zM508 1871q60 0 102 -42q42 -41 42 -101t-42 -102t-102 -42t-101 42q-42 42 -42 102t42 101q41 42 101 42zM66 1871q60 0 101 -42q42 -41 42 -101t-42 -102q-41 -42 -101 -42t-102 42t-42 102t42 101q42 42 102 42z" />
    <glyph glyph-name="afii10057" unicode="&#x408;" horiz-adv-x="983" 
d="M534 1471h281v-976q0 -233 -37 -327t-122 -150t-204 -55q-243 0 -414 213l202 189q67 -76 114 -102q48 -26 92 -26t66 38t22 167v1029z" />
    <glyph glyph-name="afii10058" unicode="&#x409;" horiz-adv-x="2034" 
d="M1388 267q174 0 233 43t59 147q0 209 -305 209h-208l154 -399h67zM1379 916q186 0 296.5 -35.5t196 -154t85.5 -277.5t-82 -270.5t-183.5 -145t-272.5 -33.5h-299l-407 1081l-414 -1081h-297l567 1471h284l233 -555h293z" />
    <glyph glyph-name="afii10059" unicode="&#x40a;" horiz-adv-x="1941" 
d="M1226 648v-381h71q175 0 233.5 46.5t58.5 138.5q0 197 -258 197l-47 -1h-58zM943 0v648h-492v-648h-284v1471h284v-555h492v555h283v-555h78q287 0 424.5 -135.5t137.5 -332.5q0 -151 -73 -256.5t-170 -148.5t-264 -43h-416z" />
    <glyph glyph-name="afii10060" unicode="&#x40b;" horiz-adv-x="1403" 
d="M569 1195v-279h93q205 0 301.5 -21t184 -90t123 -167t35.5 -257v-381h-283v376q0 159 -69 214t-267 55h-118v-645h-285v1195h-264v276h813v-276h-264z" />
    <glyph glyph-name="afii10061" unicode="&#x40c;" horiz-adv-x="1266" 
d="M167 1471h283v-506l399 506h337l-514 -656l564 -815h-332l-454 653v-653h-283v1471zM751 1977h323l-366 -392h-196z" />
    <glyph glyph-name="afii10062" unicode="&#x40e;" horiz-adv-x="1313" 
d="M427 -34q-218 0 -402 214l184 185q110 -128 217 -128q48 0 79 23t74 76l-522 1135h316l346 -820l284 820h288l-392 -1052q-101 -269 -219 -361t-253 -92zM680 1584q-236 0 -342 133q-51 64 -64 148h221q52 -82 186 -82t186 82h221q-20 -127 -122 -204t-286 -77z" />
    <glyph glyph-name="afii10145" unicode="&#x40f;" horiz-adv-x="1393" 
d="M167 0v1471h284v-1219h491v1219h284v-1471h-399v-220h-262v220h-398z" />
    <glyph glyph-name="afii10017" unicode="&#x410;" horiz-adv-x="1515" 
d="M760 1081l-196 -505h391zM616 1471h284l566 -1471h-291l-115 303h-600l-120 -303h-291z" />
    <glyph glyph-name="afii10018" unicode="&#x411;" horiz-adv-x="1165" 
d="M447 666v-399h70q192 0 243 50t51 135q0 214 -306 214h-58zM167 0v1471h769v-273h-489v-282h61q186 0 304 -41t196.5 -155t78.5 -268t-59 -245.5t-162.5 -149t-286.5 -57.5h-412z" />
    <glyph glyph-name="afii10019" unicode="&#x412;" horiz-adv-x="1188" 
d="M813 439q0 205 -307 205h-58v-377h70q174 0 234 44t61 128zM448 1204v-310h61q101 0 151 43t50 115t-47 112t-143 40h-72zM1088 429q0 -124 -64 -226q-64 -103 -165 -153t-279 -50h-412v1471h231q201 0 294 -26q132 -35 210 -130t78 -224q0 -168 -151 -281
q258 -121 258 -381z" />
    <glyph glyph-name="afii10020" unicode="&#x413;" horiz-adv-x="948" 
d="M167 1471h730v-274h-453v-1197h-277v1471z" />
    <glyph glyph-name="afii10021" unicode="&#x414;" horiz-adv-x="1579" 
d="M790 1081l-322 -818h643zM1566 263v-483h-271v220h-1012v-220h-271v483h163l471 1208h283l473 -1208h164z" />
    <glyph glyph-name="afii10022" unicode="&#x415;" horiz-adv-x="1065" 
d="M169 1471h803v-274h-525v-266h525v-269h-525v-387h525v-275h-803v1471z" />
    <glyph glyph-name="afii10024" unicode="&#x416;" horiz-adv-x="1915" 
d="M815 1471h284v-526l398 526h338l-494 -620l543 -851h-332l-414 695l-39 -42v-653h-284v653l-39 42l-414 -695h-332l543 851l-493 620h337l398 -526v526z" />
    <glyph glyph-name="afii10025" unicode="&#x417;" horiz-adv-x="1094" 
d="M498 228q99 0 160 56t61 148t-59.5 152t-246.5 60h-60v250h60q111 0 168.5 51t57.5 133t-48.5 128.5t-134.5 46.5t-185 -93l-165 184q133 120 222 143.5t164 23.5q180 0 302.5 -105t122.5 -283q0 -79 -27.5 -154t-153.5 -159q258 -115 258 -393q0 -205 -137.5 -329.5
t-353.5 -124.5q-136 0 -244 49.5t-235 213.5l214 157q111 -155 260 -155z" />
    <glyph glyph-name="afii10026" unicode="&#x418;" horiz-adv-x="1407" 
d="M1240 1471v-1471h-280v921l-549 -921h-244v1471h280v-951l557 951h236z" />
    <glyph glyph-name="afii10027" unicode="&#x419;" horiz-adv-x="1407" 
d="M1240 1471v-1471h-280v921l-549 -921h-244v1471h280v-951l557 951h236zM713 1783q134 0 186 82h221q-20 -127 -122 -204t-286 -77q-236 0 -342 133q-51 64 -64 148h221q52 -82 186 -82z" />
    <glyph glyph-name="afii10028" unicode="&#x41a;" horiz-adv-x="1270" 
d="M170 1471h283v-506l399 506h337l-514 -656l564 -815h-332l-454 653v-653h-283v1471z" />
    <glyph glyph-name="afii10029" unicode="&#x41b;" horiz-adv-x="1421" 
d="M1120 0l-407 1081l-414 -1081h-297l567 1471h284l566 -1471h-299z" />
    <glyph glyph-name="afii10030" unicode="&#x41c;" horiz-adv-x="1843" 
d="M310 1471h274l340 -1026l345 1026h270l248 -1471h-270l-158 929l-313 -929h-247l-309 929l-161 -929h-273z" />
    <glyph glyph-name="afii10031" unicode="&#x41d;" horiz-adv-x="1393" 
d="M167 1471h284v-555h492v555h283v-1471h-283v645h-492v-645h-284v1471z" />
    <glyph glyph-name="afii10032" unicode="&#x41e;" horiz-adv-x="1720" 
d="M859 1234q-203 0 -342 -142t-139 -374t175 -373q135 -111 323 -111t328 144t140 354t-141 356t-344 146zM863 1508q313 0 537 -226t224 -550t-222 -546q-222 -223 -544 -223q-324 0 -543 229t-219 544q0 211 102 388q102 176 280 280t385 104z" />
    <glyph glyph-name="afii10033" unicode="&#x41f;" horiz-adv-x="1393" 
d="M167 1471h1059v-1471h-283v1209h-492v-1209h-284v1471z" />
    <glyph glyph-name="afii10034" unicode="&#x420;" horiz-adv-x="1147" 
d="M447 896h89q105 0 146 15q88 32 88 125t-66 132q-48 29 -178 29h-79v-301zM167 1471h297q242 -1 348 -45t168 -144t61 -246t-81 -248t-218 -142q-81 -23 -295 -23v-623h-280v1471z" />
    <glyph glyph-name="afii10035" unicode="&#x421;" horiz-adv-x="1597" 
d="M874 1236q-212 0 -356 -144t-144 -355q0 -147 64 -261t181 -179t249 -65t234 46q101 46 222 165l190 -198q-163 -159 -308 -221t-331 -61q-343 -1 -561 217t-219 558q-1 220 99 391t286 275t383 104q199 0 367 -77t290 -219l-196 -187q-200 211 -450 211z" />
    <glyph glyph-name="afii10036" unicode="&#x422;" horiz-adv-x="860" 
d="M23 1471h813v-276h-268v-1195h-284v1195h-261v276z" />
    <glyph glyph-name="afii10037" unicode="&#x423;" horiz-adv-x="1313" 
d="M427 -34q-218 0 -402 214l184 185q110 -128 217 -128q48 0 79 23t74 76l-522 1135h316l346 -820l284 820h288l-392 -1052q-101 -270 -219.5 -361.5t-252.5 -91.5z" />
    <glyph glyph-name="afii10038" unicode="&#x424;" horiz-adv-x="1544" 
d="M904 1023v-375h92q142 0 188 53t46 139t-48.5 134.5t-195.5 48.5h-82zM622 1023h-65q-147 0 -196 -47.5t-49 -146.5t59.5 -140t174.5 -41h76v375zM904 1471v-190h62q530 0 530 -437q0 -239 -122 -324.5t-207.5 -103t-262.5 -17.5v-399h-282v399q-185 0 -303.5 37
t-194.5 140.5t-76 255.5t61 252.5t172.5 148.5t340.5 48v190h282z" />
    <glyph glyph-name="afii10039" unicode="&#x425;" horiz-adv-x="1393" 
d="M72 1471h315l308 -471l311 471h315l-468 -712l497 -759h-315l-340 517l-337 -517h-317l497 759z" />
    <glyph glyph-name="afii10040" unicode="&#x426;" horiz-adv-x="1536" 
d="M167 0v1471h284v-1219h492v1219h283v-1219h299v-472h-262v220h-1096z" />
    <glyph glyph-name="afii10041" unicode="&#x427;" horiz-adv-x="1262" 
d="M812 644h-94q-203 0 -299.5 21t-184.5 89.5t-124 166t-36 258.5v292h284v-287q0 -150 54 -209t230 -59h170v555h282v-1471h-282v644z" />
    <glyph glyph-name="afii10042" unicode="&#x428;" horiz-adv-x="1976" 
d="M844 252v1219h282v-1219h400v1219h284v-1471h-1643v1471h284v-1219h393z" />
    <glyph glyph-name="afii10043" unicode="&#x429;" horiz-adv-x="2097" 
d="M1504 252v1219h282v-1219h300v-472h-262v220h-1681v1471h284v-1219h393v1219h282v-1219h402z" />
    <glyph glyph-name="afii10044" unicode="&#x42a;" horiz-adv-x="1337" 
d="M620 666v-399h71q156 0 225 41.5t69 148.5q0 209 -307 209h-58zM341 0v1208h-329v263h608v-555h62q174 0 290 -40t202.5 -155t86.5 -269t-75.5 -261.5t-172.5 -149t-260 -41.5h-412z" />
    <glyph glyph-name="afii10045" unicode="&#x42b;" horiz-adv-x="1735" 
d="M447 666v-399h70q174 0 233 43t59 147q0 209 -304 209h-58zM167 0v1471h280v-555h61q175 0 291.5 -40.5t201.5 -154t85 -269.5t-73 -260.5t-169.5 -148t-264.5 -43.5h-412zM1290 1471h278v-1471h-278v1471z" />
    <glyph glyph-name="afii10046" unicode="&#x42c;" horiz-adv-x="1163" 
d="M447 666v-399h70q174 0 233 43t59 147q0 209 -304 209h-58zM167 0v1471h280v-555h61q175 0 291.5 -40.5t201.5 -154t85 -269.5t-73 -260.5t-169.5 -148t-264.5 -43.5h-412z" />
    <glyph glyph-name="afii10047" unicode="&#x42d;" horiz-adv-x="1597" 
d="M717 232q161 0 297 86t193 278h-564v255h564q-19 151 -159 268t-326 117q-255 0 -450 -211l-196 187q119 142 291 219t350 77q314 0 549 -212t235 -551q-1 -339 -215 -561t-565 -221q-167 0 -317 56t-322 226l190 198q204 -211 445 -211z" />
    <glyph glyph-name="afii10048" unicode="&#x42e;" horiz-adv-x="2251" 
d="M1873 729q0 205 -137 355t-340 150t-345.5 -139t-142.5 -363t146 -361t343 -137t336.5 145t139.5 350zM445 916h190q132 335 332.5 463.5t424.5 128.5q304 0 533 -222.5t229 -549.5t-222 -550t-520 -223t-525.5 184.5t-251.5 496.5h-190v-644h-278v1471h278v-555z" />
    <glyph glyph-name="afii10049" unicode="&#x42f;" horiz-adv-x="1202" 
d="M755 865v332h-77q-105 0 -151 -12.5t-75 -54t-29 -117.5t58 -112t186 -36h88zM1035 1471v-1471h-280v592h-70l-296 -592h-306l333 638q-290 83 -290 386q0 208 87 293.5t161.5 112t118.5 30.5t245 11h297z" />
    <glyph glyph-name="afii10065" unicode="&#x430;" horiz-adv-x="1352" 
d="M656 864q-128 0 -212 -90t-84 -230t86 -231t212 -91q127 0 212 90t85 232q0 144 -85 232q-86 88 -214 88zM591 1116q205 0 351 -148v120h272v-1088h-272v115q-151 -143 -348 -143q-198 0 -352 164t-154 410q0 248 149 409t354 161z" />
    <glyph glyph-name="afii10066" unicode="&#x431;" horiz-adv-x="1335" 
d="M973 541q0 139 -81.5 228.5t-212.5 89.5t-215 -90.5t-84 -228.5t83.5 -225.5t210.5 -87.5t213 87.5t86 226.5zM729 1111q211 0 365.5 -154.5t154.5 -402.5t-166 -415t-410 -167q-199 0 -350.5 122t-194.5 290.5t-43 386.5t61 371.5t160.5 230.5t230.5 103t344 36t297 19
v-258q-117 -13 -272 -15t-256 -17t-178 -71.5t-109 -130t-39 -211.5q118 283 405 283z" />
    <glyph glyph-name="afii10067" unicode="&#x432;" horiz-adv-x="1096" 
d="M412 210h137q80 0 112.5 38t32.5 82t-36.5 88t-131.5 44h-114v-252zM412 660h105q67 0 103.5 33.5t36.5 84.5t-35 85t-83 34l-35 -1h-92v-236zM138 0v1088h437q215 0 292 -84.5t77 -191.5q0 -159 -158 -229q216 -74 216 -279q0 -111 -57 -183.5t-144.5 -96.5t-244.5 -24
h-418z" />
    <glyph glyph-name="afii10068" unicode="&#x433;" horiz-adv-x="819" 
d="M137 1088h635v-260h-361v-828h-274v1088z" />
    <glyph glyph-name="afii10069" unicode="&#x434;" horiz-adv-x="1333" 
d="M841 231l-178 458l-184 -458h362zM279 0v-189h-243v420h164l375 857h176l380 -857h167v-420h-260v189h-759z" />
    <glyph glyph-name="afii10070" unicode="&#x435;" horiz-adv-x="1311" 
d="M658 885q-110 0 -195 -64q-54 -40 -100 -141h591q-26 91 -106 148t-190 57zM87 541q1 247 161 411t410 164t410 -164q161 -164 161 -435l-1 -52h-877q19 -117 101 -185t224 -68q140 0 250 107l230 -108q-168 -239 -491 -239q-256 0 -417 162t-161 407z" />
    <glyph glyph-name="afii10072" unicode="&#x436;" horiz-adv-x="1651" 
d="M689 1088h273v-407l375 407h334l-485 -530l491 -558h-362l-324 384l-29 -34v-350h-273v350l-29 34l-324 -384h-362l491 558l-485 530h333l376 -407v407z" />
    <glyph glyph-name="afii10073" unicode="&#x437;" horiz-adv-x="922" 
d="M320 461v195h54q55 0 96 26t41 80t-36.5 86.5t-96.5 32.5t-161 -65l-108 188q141 112 307 112t270.5 -82.5t104.5 -223.5t-152 -229q203 -75 203 -271q0 -146 -114 -242t-325 -96t-355 124l151 190q97 -72 175 -72t119.5 33.5t41.5 85.5t-38.5 90t-105.5 38h-71z" />
    <glyph glyph-name="afii10074" unicode="&#x438;" 
d="M137 0v1088h266v-639l557 639h131v-1088h-266v626l-543 -626h-145z" />
    <glyph glyph-name="afii10075" unicode="&#x439;" 
d="M137 0v1088h266v-639l557 639h131v-1088h-266v626l-543 -626h-145zM624 1486q134 0 186 82h221q-19 -127 -121 -204t-287 -77q-236 0 -342 133q-51 64 -64 148h221q52 -82 186 -82z" />
    <glyph glyph-name="afii10076" unicode="&#x43a;" horiz-adv-x="1100" 
d="M138 1088h273v-407l376 407h333l-485 -530l491 -558h-362l-324 384l-29 -34v-350h-273v1088z" />
    <glyph glyph-name="afii10077" unicode="&#x43b;" horiz-adv-x="1116" 
d="M1110 0h-278l-272 687l-277 -687h-277l464 1088h176z" />
    <glyph glyph-name="afii10078" unicode="&#x43c;" horiz-adv-x="1604" 
d="M804 402l334 686h180l272 -1088h-267l-145 638l-324 -638h-112l-317 638l-146 -638h-266l272 1088h180z" />
    <glyph glyph-name="afii10079" unicode="&#x43d;" 
d="M411 696h406v392h274v-1088h-274v451h-406v-451h-274v1088h274v-392z" />
    <glyph glyph-name="afii10080" unicode="&#x43e;" horiz-adv-x="1311" 
d="M654 859q-128 -1 -212 -89t-85 -228t83 -228t212 -88t213 89t85 229t-84 228t-212 87zM649 1116q153 0 289 -77t212 -209t76 -286t-76 -287t-209 -209q-132 -76 -291 -76q-234 0 -400 166t-165 414q-1 246 175 405t389 159z" />
    <glyph glyph-name="afii10081" unicode="&#x43f;" 
d="M411 0h-274v1088h954v-1088h-274v825h-406v-825z" />
    <glyph glyph-name="afii10082" unicode="&#x440;" horiz-adv-x="1352" 
d="M696 864q-128 0 -214 -88q-85 -88 -85 -232t85 -232q85 -90 212 -90q126 0 212 91t86 231t-84 230t-212 90zM758 -28q-198 0 -349 143v-513h-271v1486h271v-120q149 148 353 148t353 -161t149 -409t-154 -410q-154 -164 -352 -164z" />
    <glyph glyph-name="afii10083" unicode="&#x441;" horiz-adv-x="1311" 
d="M703 862q-153 0 -247 -92t-95 -232q0 -141 91 -229t239 -88q183 0 285 125l215 -147q-175 -227 -478 -227t-465 170t-163 398q0 158 79 291q78 133 220 209t310 76q338 0 509 -248l-227 -125q-64 67 -126 93t-147 26z" />
    <glyph glyph-name="afii10084" unicode="&#x442;" horiz-adv-x="1096" 
d="M41 1088h1014v-260h-361v-828h-274v828h-379v260z" />
    <glyph glyph-name="afii10085" unicode="&#x443;" horiz-adv-x="1188" 
d="M17 1088h279l283 -683l312 683h280l-682 -1486h-282l224 479z" />
    <glyph glyph-name="afii10086" unicode="&#x444;" horiz-adv-x="2064" 
d="M905 534q0 195 -96.5 260.5t-173.5 65.5q-132 0 -207 -93t-75 -229t81 -228t198 -92t195 82.5t78 233.5zM1713 543q0 140 -79.5 229.5t-195.5 89.5t-196.5 -86t-80.5 -238t77.5 -235t194.5 -83t198.5 91.5t81.5 231.5zM585 -31q-205 0 -356 162.5t-151 412.5t147 409
t342 159t330 -125v521h271v-521q135 129 319 129q131 0 244 -69t184 -198t71 -307q0 -249 -152.5 -409.5t-353.5 -160.5q-169 0 -312 121v-491h-271v491q-143 -124 -312 -124z" />
    <glyph glyph-name="afii10087" unicode="&#x445;" horiz-adv-x="1147" 
d="M40 1088h317l213 -297l216 297h314l-372 -515l418 -573h-317l-259 357l-256 -357h-313l412 573z" />
    <glyph glyph-name="afii10088" unicode="&#x446;" horiz-adv-x="1380" 
d="M137 0v1088h274v-826h406v826h274v-826h277v-453h-260v191h-971z" />
    <glyph glyph-name="afii10089" unicode="&#x447;" horiz-adv-x="1139" 
d="M728 432h-219q-222 0 -341.5 85.5t-119.5 281.5v289h274v-268q0 -143 191 -143l106 1h109v410h274v-1088h-274v432z" />
    <glyph glyph-name="afii10090" unicode="&#x448;" horiz-adv-x="1845" 
d="M1707 0h-1570v1088h274v-826h374v826h274v-826h375v826h273v-1088z" />
    <glyph glyph-name="afii10091" unicode="&#x449;" horiz-adv-x="1997" 
d="M1707 262h278v-453h-261v191h-1587v1088h274v-826h374v826h274v-826h375v826h273v-826z" />
    <glyph glyph-name="afii10092" unicode="&#x44a;" horiz-adv-x="1190" 
d="M557 210h83q74 0 106.5 10.5t58 40.5t25.5 73q0 140 -161 140h-112v-264zM557 696h81q172 0 263 -26.5t154 -111t63 -210.5t-57.5 -209.5t-145.5 -111t-248 -27.5h-384v845h-262v243h536v-392z" />
    <glyph glyph-name="afii10093" unicode="&#x44b;" horiz-adv-x="1573" 
d="M1162 1088h273v-1088h-273v1088zM411 210h83q74 0 107 10.5t58 40.5t25 73q0 140 -160 140h-113v-264zM411 696h81q171 0 262.5 -26.5t154.5 -111t63 -210.5t-57 -209.5t-145.5 -111t-248.5 -27.5h-384v1088h274v-392z" />
    <glyph glyph-name="afii10094" unicode="&#x44c;" horiz-adv-x="1044" 
d="M411 210h83q74 0 107 10.5t58 40.5t25 73q0 140 -160 140h-113v-264zM411 696h81q171 0 262.5 -26.5t154.5 -111t63 -210.5t-57 -209.5t-145.5 -111t-248.5 -27.5h-384v1088h274v-392z" />
    <glyph glyph-name="afii10095" unicode="&#x44d;" horiz-adv-x="1278" 
d="M538 430v237h365q-94 197 -318 197q-157 0 -283 -121l-227 125q203 248 502 248q269 0 442.5 -163t173.5 -409t-166 -409t-456 -163t-484 227l215 147q100 -129 288 -129q225 0 313 213h-365z" />
    <glyph glyph-name="afii10096" unicode="&#x44e;" horiz-adv-x="1771" 
d="M1411 543q0 141 -83.5 228.5t-213.5 87.5t-213 -90.5t-83 -228.5t83.5 -225.5t210.5 -87.5t213 87.5t86 228.5zM411 0h-274v1088h274v-431h145q50 216 209.5 337.5t344.5 121.5q239 0 407.5 -165t168.5 -403t-164 -407t-411 -169q-197 0 -354.5 124.5t-200.5 310.5h-145
v-407z" />
    <glyph glyph-name="afii10097" unicode="&#x44f;" horiz-adv-x="1067" 
d="M656 599v261h-95q-155 0 -155 -130t173 -131h77zM122 747q0 111 69 202t164.5 115t298.5 24h276v-1088h-274v394h-53l-259 -394h-323l302 446q-88 29 -144.5 109.5t-56.5 191.5z" />
    <glyph glyph-name="afii10071" unicode="&#x451;" horiz-adv-x="1311" 
d="M658 885q-110 0 -195 -64q-54 -40 -100 -141h591q-26 91 -106 148t-190 57zM87 541q1 247 161 411t410 164t410 -164q161 -164 161 -435l-1 -52h-877q19 -117 101 -185t224 -68q140 0 250 107l230 -108q-168 -239 -491 -239q-256 0 -417 162t-161 407zM878 1573
q60 0 101 -42q42 -41 42 -101t-42 -102q-41 -42 -101 -42t-102 42t-42 102t42 101q42 42 102 42zM434 1573q60 0 102 -42q42 -41 42 -101t-42 -102t-102 -42t-101 42q-42 42 -42 102t42 101q41 42 101 42z" />
    <glyph glyph-name="afii10099" unicode="&#x452;" 
d="M736 1116q142 0 256 -95t114 -302v-719q0 -117 -18.5 -221t-97.5 -154.5t-169 -50.5t-208 41v215q61 -31 117 -31t81 39.5t25 141.5v497q0 165 -21.5 277t-167.5 112q-84 0 -144 -55t-77 -128t-17 -246v-437h-272v1225h-155v174h155v109h272v-109h347v-174h-347v-247
q152 138 327 138z" />
    <glyph glyph-name="afii10100" unicode="&#x453;" horiz-adv-x="819" 
d="M137 1088h635v-260h-361v-828h-274v1088zM496 1682h323l-366 -392h-196z" />
    <glyph glyph-name="afii10101" unicode="&#x454;" horiz-adv-x="1278" 
d="M688 217q188 0 288 129l215 -147q-194 -227 -484 -227t-456 164t-166 408q-1 246 173 409t443 163q299 0 502 -248l-227 -125q-126 121 -283 121q-224 0 -318 -197h365v-237h-365q88 -213 313 -213z" />
    <glyph glyph-name="afii10102" unicode="&#x455;" horiz-adv-x="901" 
d="M448 869q-46 1 -72 -19t-26 -46t16 -44t82 -50l100 -50q158 -78 217 -159t59 -190q0 -145 -106 -242t-286 -97q-238 0 -380 186l168 183q48 -57 112 -91t117 -34q52 0 85 26t33 60q0 63 -119 123l-92 46q-264 133 -264 333q0 128 100 220t254 92q106 0 200 -46t158 -134
l-169 -169q-103 102 -187 102z" />
    <glyph glyph-name="afii10103" unicode="&#x456;" horiz-adv-x="491" 
d="M108 1088h274v-1088h-274v1088zM245 1536q71 0 123 -52t52 -126t-51 -124q-51 -52 -123 -52t-124 52t-51 126q0 74 51 125t123 51z" />
    <glyph glyph-name="afii10104" unicode="&#x457;" horiz-adv-x="491" 
d="M109 1088h274v-1088h-274v1088zM468 1573q60 0 101 -42q42 -41 42 -101t-42 -102q-41 -42 -101 -42t-102 42t-42 102t42 101q42 42 102 42zM24 1573q60 0 102 -42q42 -41 42 -101t-42 -102t-102 -42t-101 42q-42 42 -42 102t42 101q41 42 101 42z" />
    <glyph glyph-name="afii10105" unicode="&#x458;" horiz-adv-x="533" 
d="M130 1088h273v-1124q-1 -156 -31 -232t-96 -117t-154 -41t-209 41v215q65 -31 115 -31t76 31t26 114v1144zM266 1536q72 0 124 -52t52 -126t-51 -125q-51 -52 -123 -52t-124 53q-52 52 -51 126t51 125t122 51z" />
    <glyph glyph-name="afii10106" unicode="&#x459;" horiz-adv-x="1598" 
d="M1047 210q74 0 107 10.5t58.5 40.5t25.5 73q0 141 -161 141h-174l110 -265h34zM1045 696q162 0 259.5 -30t159 -113.5t61.5 -207.5t-57.5 -207.5t-145.5 -110.5t-247 -27h-243l-272 687l-277 -687h-277l464 1088h176l164 -392h235z" />
    <glyph glyph-name="afii10107" unicode="&#x45a;" horiz-adv-x="1729" 
d="M1091 210h83q74 0 107 10.5t58.5 40.5t25.5 73q0 140 -161 140h-113v-264zM817 0v451h-406v-451h-274v1088h274v-392h406v392h274v-392h81q205 0 292 -36.5t138 -117.5t51 -200t-57 -203t-145.5 -111.5t-248.5 -27.5h-385z" />
    <glyph glyph-name="afii10108" unicode="&#x45b;" 
d="M736 1116q143 0 256.5 -95t113.5 -302v-719h-270v477q0 171 -22 280t-169 109q-83 0 -143 -55t-77 -128t-17 -246v-437h-271v1225h-155v174h155v109h271v-109h348v-174h-348v-247q152 138 328 138z" />
    <glyph glyph-name="afii10109" unicode="&#x45c;" horiz-adv-x="1100" 
d="M138 1088h273v-407l376 407h333l-485 -530l491 -558h-362l-324 384l-29 -34v-350h-273v1088zM709 1679h323l-366 -392h-196z" />
    <glyph glyph-name="afii10110" unicode="&#x45e;" horiz-adv-x="1188" 
d="M17 1088h279l283 -683l312 683h280l-682 -1486h-282l224 479zM611 1287q-236 0 -342 133q-51 64 -64 148h221q52 -82 186 -82t186 82h221q-19 -127 -121 -204t-287 -77z" />
    <glyph glyph-name="afii10193" unicode="&#x45f;" 
d="M137 0v1088h274v-826h406v826h274v-1088h-349v-191h-256v191h-349z" />
    <glyph glyph-name="afii10050" unicode="&#x490;" horiz-adv-x="983" 
d="M167 1471h498v212h269v-486h-490v-1197h-277v1471z" />
    <glyph glyph-name="afii10098" unicode="&#x491;" horiz-adv-x="881" 
d="M138 1088h438v160h257v-420h-421v-828h-274v1088z" />
    <glyph glyph-name="Wgrave" unicode="&#x1e80;" horiz-adv-x="1843" 
d="M56 1471h276l212 -939l263 939h233l266 -939l210 939h276l-331 -1471h-269l-271 951l-266 -951h-266zM876 1977l239 -392h-196l-366 392h323z" />
    <glyph glyph-name="wgrave" unicode="&#x1e81;" horiz-adv-x="1638" 
d="M17 1088h267l219 -619l236 619h163l231 -612l219 612h269l-397 -1088h-173l-232 620l-239 -620h-171zM771 1679l239 -392h-196l-366 392h323z" />
    <glyph glyph-name="Wacute" unicode="&#x1e82;" horiz-adv-x="1843" 
d="M56 1471h276l212 -939l263 939h233l266 -939l210 939h276l-331 -1471h-269l-271 951l-266 -951h-266zM972 1977h323l-366 -392h-196z" />
    <glyph glyph-name="wacute" unicode="&#x1e83;" horiz-adv-x="1638" 
d="M17 1088h267l219 -619l236 619h163l231 -612l219 612h269l-397 -1088h-173l-232 620l-239 -620h-171zM867 1679h323l-366 -392h-196z" />
    <glyph glyph-name="Wdieresis" unicode="&#x1e84;" horiz-adv-x="1843" 
d="M56 1471h276l212 -939l263 939h233l266 -939l210 939h276l-331 -1471h-269l-271 951l-266 -951h-266zM1146 1871q60 0 101 -42q42 -41 42 -101t-42 -102q-41 -42 -101 -42t-102 42t-42 102t42 101q42 42 102 42zM702 1871q60 0 102 -42q42 -41 42 -101t-42 -102t-102 -42
t-101 42q-42 42 -42 102t42 101q41 42 101 42z" />
    <glyph glyph-name="wdieresis" unicode="&#x1e85;" horiz-adv-x="1638" 
d="M17 1088h267l219 -619l236 619h163l231 -612l219 612h269l-397 -1088h-173l-232 620l-239 -620h-171zM1040 1573q60 0 102 -42q42 -41 42 -101t-42 -102t-102 -42t-101 42q-42 42 -42 102t42 101q41 42 101 42zM598 1573q60 0 101 -42q42 -41 42 -101t-42 -102
q-41 -42 -101 -42t-102 42t-42 102t42 101q42 42 102 42z" />
    <glyph glyph-name="Ygrave" unicode="&#x1ef2;" horiz-adv-x="1270" 
d="M777 0h-282v637l-432 834h301l274 -528l272 528h297l-430 -834v-637zM587 1977l239 -392h-196l-366 392h323z" />
    <glyph glyph-name="ygrave" unicode="&#x1ef3;" horiz-adv-x="1188" 
d="M17 1088h279l283 -683l312 683h280l-682 -1486h-282l224 479zM546 1679l239 -392h-196l-366 392h323z" />
    <glyph glyph-name="endash" unicode="&#x2013;" horiz-adv-x="1024" 
d="M-12 469v242h1048v-242h-1048z" />
    <glyph glyph-name="emdash" unicode="&#x2014;" horiz-adv-x="2048" 
d="M-12 469v242h2072v-242h-2072z" />
    <glyph glyph-name="afii00208" unicode="&#x2015;" horiz-adv-x="1536" 
d="M-12 469v242h1560v-242h-1560z" />
    <glyph glyph-name="underscoredbl" unicode="&#x2017;" horiz-adv-x="1024" 
d="M-12 -290h1048v-102h-1048v102zM-12 -113h1048v-102h-1048v102z" />
    <glyph glyph-name="quoteleft" unicode="&#x2018;" horiz-adv-x="573" 
d="M419 947h-252v139q0 131 32.5 226.5t109.5 195.5l98 -77q-37 -54 -54.5 -93t-34.5 -104h101v-287z" />
    <glyph glyph-name="quoteright" unicode="&#x2019;" horiz-adv-x="573" 
d="M155 1508h252v-138q0 -132 -32.5 -227t-109.5 -196l-98 77q37 54 54.5 93.5t34.5 104.5h-101v286z" />
    <glyph glyph-name="quotesinglbase" unicode="&#x201a;" horiz-adv-x="573" 
d="M155 286h252v-138q0 -132 -32.5 -227t-109.5 -195l-98 76q37 55 54.5 94t34.5 104h-101v286z" />
    <glyph glyph-name="quotereversed" unicode="&#x201b;" horiz-adv-x="573" 
d="M418 1508v-286h-101q17 -64 35 -104t54 -94l-98 -77q-78 101 -110 196t-32 227v138h252z" />
    <glyph glyph-name="quotedblleft" unicode="&#x201c;" horiz-adv-x="983" 
d="M823 947h-252v139q0 131 32 226.5t110 195.5l98 -77q-37 -54 -54.5 -93t-34.5 -104h101v-287zM415 947h-252v139q0 131 32.5 226.5t109.5 195.5l98 -77q-37 -54 -54.5 -93t-34.5 -104h101v-287z" />
    <glyph glyph-name="quotedblright" unicode="&#x201d;" horiz-adv-x="983" 
d="M160 1508h252v-138q0 -132 -32.5 -227t-109.5 -196l-98 77q37 54 54.5 93.5t34.5 104.5h-101v286zM568 1508h252v-138q0 -132 -32.5 -227t-110.5 -196l-97 77q37 54 54.5 93.5t33.5 104.5h-100v286z" />
    <glyph glyph-name="quotedblbase" unicode="&#x201e;" horiz-adv-x="983" 
d="M160 286h252v-138q0 -132 -32.5 -227t-109.5 -195l-98 76q37 55 54.5 94t34.5 104h-101v286zM568 286h252v-138q0 -132 -32.5 -227t-110.5 -195l-97 76q37 55 54.5 94t33.5 104h-100v286z" />
    <glyph glyph-name="dagger" unicode="&#x2020;" horiz-adv-x="1147" 
d="M442 1508h267l-48 -548l453 49v-271l-453 55l48 -1191h-267l50 1191l-452 -55v271l452 -49z" />
    <glyph glyph-name="daggerdbl" unicode="&#x2021;" horiz-adv-x="1147" 
d="M439 1508h269l-51 -468l454 48v-269l-454 53l51 -324l-51 -321l454 55v-274l-454 53l51 -459h-269l49 459l-449 -53v274l449 -55l-49 321l49 324l-449 -53v269l449 -48z" />
    <glyph glyph-name="bullet" unicode="&#x2022;" 
d="M614 1053q127 0 217 -89.5t90 -217.5t-90 -218t-217 -90t-217 90t-90 218t90 217.5t217 89.5z" />
    <glyph glyph-name="ellipsis" unicode="&#x2026;" horiz-adv-x="2048" 
d="M1706 285q65 0 111 -45.5t46 -110.5t-46 -111t-111 -46t-111 46t-46 111t46 110.5t111 45.5zM341 285q65 0 111 -45.5t46 -110.5t-46 -111t-111 -46t-111 46t-46 111t46 110.5t111 45.5zM1023 285q65 0 111 -45.5t46 -110.5t-46 -111t-111 -46t-110.5 46t-45.5 111
t45.5 110.5t110.5 45.5z" />
    <glyph glyph-name="perthousand" unicode="&#x2030;" horiz-adv-x="2621" 
d="M1366 482q-70 0 -120 -50t-50 -120t50 -120t120 -50t119.5 50t49.5 120t-49.5 120t-119.5 50zM1366 663q146 0 249 -102.5t103 -248.5t-103 -249t-249 -103t-248 103t-102 249t102 248.5t248 102.5zM2228 482q-70 0 -120 -50t-50 -120t50 -120t120 -50t120 50t50 120
t-50 120t-120 50zM2230 663q146 0 248 -102.5t102 -248.5t-102 -249t-248 -103t-249 103t-103 249t103 248.5t249 102.5zM392 1325q-70 0 -119.5 -49.5t-49.5 -119.5t49.5 -119t119.5 -49t119.5 49.5t49.5 119.5t-49.5 119t-119.5 49zM900 1275q-102 0 -179 7
q22 -70 22 -127q0 -146 -101.5 -248t-247.5 -102t-249.5 102t-103.5 247q0 94 46 174.5t129.5 130t155.5 49.5t223 -33t298 -33q266 0 458 94h202l-1166 -1636h-202l997 1405q-180 -30 -282 -30z" />
    <glyph glyph-name="minute" unicode="&#x2032;" horiz-adv-x="451" 
d="M287 1004h-156l16 504h266z" />
    <glyph glyph-name="second" unicode="&#x2033;" horiz-adv-x="737" 
d="M225 1004h-156l16 504h267zM636 1004h-156l16 504h267z" />
    <glyph glyph-name="guilsinglleft" unicode="&#x2039;" horiz-adv-x="491" 
d="M210 1088h255l-185 -548l185 -540h-255l-183 540z" />
    <glyph glyph-name="guilsinglright" unicode="&#x203a;" horiz-adv-x="491" 
d="M282 0h-255l185 548l-185 540h255l183 -540z" />
    <glyph glyph-name="exclamdbl" unicode="&#x203c;" horiz-adv-x="1153" 
d="M872 314q70 0 121 -49t51 -121t-50 -122t-122 -50t-121.5 50t-49.5 121t50.5 121t120.5 50zM282 314q70 0 120.5 -49t50.5 -121t-50.5 -122t-120.5 -50t-121 50.5t-51 122.5t51 120.5t121 48.5zM735 1508h275v-1075h-275v1075zM143 1508h276v-1075h-276v1075z" />
    <glyph glyph-name="radicalex" unicode="&#x203e;" horiz-adv-x="1147" 
d="M-42 1869h1231v-74h-1231v74z" />
    <glyph glyph-name="fraction" unicode="&#x2044;" horiz-adv-x="328" 
d="M-235 -37l626 1545h171l-626 -1545h-171z" />
    <glyph glyph-name="fraction" unicode="&#x2215;" horiz-adv-x="328" 
d="M-235 -37l626 1545h171l-626 -1545h-171z" />
    <glyph glyph-name="nsuperior" unicode="&#x207f;" horiz-adv-x="700" 
d="M77 1256h201v-54q74 71 158 71t139.5 -67t55.5 -185v-446h-200v300q0 135 -13 177.5t-56 42.5t-63.5 -55t-20.5 -189v-276h-201v681z" />
    <glyph glyph-name="franc" unicode="&#x20a3;" horiz-adv-x="983" 
d="M449 413h226v-163h-226v-250h-277v250h-172v163h172v1058h730v-273h-453v-267h453v-269h-453v-249z" />
    <glyph glyph-name="afii08941" unicode="&#x20a4;" horiz-adv-x="1147" 
d="M706 -37q-39 1 -166 19t-217 18t-180 -34l-94 238q86 36 159 44q86 146 93 266h-247v174h228q-8 28 -35 98h-193v173h130q-23 77 -23 147q0 190 124.5 296t300.5 106t301 -108t125 -304h-281q-32 155 -145 155q-61 0 -102 -43.5t-41 -99.5t36 -149h363v-173h-302
q9 -31 26 -98h276v-174h-256q-8 -112 -67 -259l194 -29q92 0 123 110h259q-6 -157 -120 -265t-269 -108z" />
    <glyph glyph-name="peseta" unicode="&#x20a7;" horiz-adv-x="2368" 
d="M769 1044q0 86 -57.5 120t-193.5 34h-71v-326q191 -1 256.5 42.5t65.5 129.5zM1136 1088v401h272v-401h355q62 28 144 28q228 0 364 -180l-169 -169q-99 102 -187 102q-40 0 -69 -17.5t-29 -45.5t18.5 -47t79.5 -49l100 -50q156 -77 216 -158.5t60 -190.5
q0 -146 -107.5 -242.5t-284.5 -96.5q-238 0 -380 186l168 183q35 -44 101.5 -84.5t121.5 -40.5t89.5 25t34.5 61q0 63 -119 123l-92 46q-264 133 -264 333q0 23 5 49h-156v-853h-272v853h-134q-108 -234 -555 -245v-608h-280v1471h342q170 0 266.5 -29.5t176.5 -123.5
t94 -230h90z" />
    <glyph glyph-name="Euro" unicode="&#x20ac;" horiz-adv-x="1147" 
d="M907 231q99 0 203 41v-282q-92 -27 -207 -27q-273 0 -475 144t-274 401h-144l39 164h78q-2 20 -2 64t2 63h-117l41 164h105q75 254 282.5 399t468.5 145q102 0 203 -30l-61 -263q-77 25 -148 25q-144 0 -265 -73t-185 -203h538l-37 -164h-549q-4 -39 -4 -63t4 -64h519
l-39 -164h-434q60 -132 182 -204.5t276 -72.5z" />
    <glyph glyph-name="afii61248" unicode="&#x2105;" horiz-adv-x="1805" 
d="M1442 515q-56 0 -90.5 -49.5t-34.5 -125.5t33.5 -126t86.5 -50t88.5 48t35.5 124t-31.5 127.5t-87.5 51.5zM1439 698q131 0 227 -104t96 -252t-93.5 -253.5t-230.5 -105.5t-230 105t-93 254t96.5 252.5t227.5 103.5zM509 -37l627 1545h171l-627 -1545h-171zM400 1328
q-73 0 -113.5 -52.5t-40.5 -129.5t39 -126t116 -49t123 79l162 -103q-102 -153 -280 -153t-271 106t-93 254t101 251t253 103q199 0 297 -168l-169 -86q-51 74 -124 74z" />
    <glyph glyph-name="afii61289" unicode="&#x2113;" horiz-adv-x="989" 
d="M686 1146q0 58 -27 87t-74 29t-88 -60.5t-44 -259.5l-2 -83q136 99 185.5 164t49.5 123zM600 1491q145 0 235 -99.5t90 -245.5t-96 -275.5t-378 -308.5q-1 -227 43 -298t141 -71t259 123v-241q-144 -99 -295 -99q-367 0 -421 447q-55 -28 -113 -52l-44 257l148 72
q0 332 40.5 471t143 229.5t247.5 90.5z" />
    <glyph glyph-name="afii61352" unicode="&#x2116;" horiz-adv-x="2273" 
d="M1495 175h702v-175h-702v175zM2015 658q0 70 -50 119.5t-120 49.5t-120 -49.5t-50 -119.5t49.5 -120t119.5 -50t120.5 50t50.5 120zM2197 658q0 -144 -103.5 -247t-248.5 -103t-247.5 103t-102.5 247t103.5 247t247.5 103t247.5 -103t103.5 -247zM167 1471h268l631 -968
v968h280v-1471h-269l-630 965v-965h-280v1471z" />
    <glyph glyph-name="trademark" unicode="&#x2122;" horiz-adv-x="2048" 
d="M809 1471v-147h-262v-693h-182v693h-264v147h708zM1905 1471v-840h-176v691l-275 -691h-88l-266 691v-691h-176v840h267l219 -540l230 540h265z" />
    <glyph glyph-name="Ohm" unicode="&#x2126;" horiz-adv-x="1573" 
d="M77 811q0 310 191.5 501t508.5 191q242 0 395 -82t245.5 -243.5t92.5 -369.5t-98 -363t-284 -237l330 23h72v-231h-642v243q105 50 168 121.5t100.5 181.5t37.5 238q0 244 -113 372t-291 128t-290 -131.5t-112 -363.5q0 -128 39 -239t104 -184.5t169 -122.5v-243h-645
v230h98l309 -24q-385 163 -385 605z" />
    <glyph glyph-name="estimated" unicode="&#x212e;" 
d="M917 605v297q-123 121 -299 121t-297 -122v-296h596zM321 531v-371q120 -121 298 -121q254 0 395 246l72 -43q-118 -170 -231.5 -223t-235.5 -53q-232 0 -380.5 158.5t-148.5 408.5t149.5 406.5t371.5 156.5t374 -142t163 -423h-827z" />
    <glyph glyph-name="oneeighth" unicode="&#x215b;" horiz-adv-x="1720" 
d="M1493 226q0 45 -37.5 70.5t-87.5 25.5t-89 -27t-39 -65t33 -65.5t94 -27.5q126 0 126 89zM1455 550q0 70 -92 70q-39 0 -61.5 -20t-22.5 -52t24.5 -54t64.5 -22t63.5 22.5t23.5 55.5zM1681 216q0 -95 -78.5 -164.5t-228.5 -69.5t-234.5 62t-84.5 176t117 190
q-77 64 -77 154t76 150.5t198 60.5t196 -64.5t74 -146.5t-79 -154q121 -74 121 -194zM472 1489v-756h-188v599h-193l116 157h265zM437 -37l626 1545h171l-626 -1545h-171z" />
    <glyph glyph-name="threeeighths" unicode="&#x215c;" horiz-adv-x="1720" 
d="M1494 226q0 45 -38 70.5t-88 25.5t-88.5 -27t-38.5 -65t33 -65.5t94 -27.5q126 0 126 89zM1455 550q0 70 -92 70q-39 0 -61.5 -20t-22.5 -52t25.5 -54t64.5 -22t62.5 22.5t23.5 55.5zM1681 216q0 -95 -78 -164.5t-238 -69.5t-235 70t-75 176t117 182q-76 64 -76 154
t76 150.5t200 60.5t195.5 -64.5t71.5 -146.5t-79 -154q121 -74 121 -194zM462 -37l627 1545h170l-626 -1545h-171zM353 1508q113 0 187 -60.5t74 -148.5t-93 -141q65 -25 103 -78.5t38 -113.5q0 -101 -89 -176t-229 -75t-221.5 73t-84.5 193h184q15 -111 127 -111
q46 0 85 24.5t39 66.5q0 103 -197 105v138q154 0 154 82q0 27 -20.5 47t-54.5 20q-67 0 -103 -71h-183q39 226 284 226z" />
    <glyph glyph-name="fiveeighths" unicode="&#x215d;" horiz-adv-x="1720" 
d="M1493 226q0 45 -37.5 70.5t-87.5 25.5t-89 -27t-39 -65t33 -65.5t94 -27.5q126 0 126 89zM1454 550q0 70 -92 70q-39 0 -61.5 -20t-22.5 -52t25 -54t65 -22t63 22.5t23 55.5zM1681 216q0 -95 -78.5 -164.5t-228.5 -69.5t-235 62t-85 176t118 190q-77 64 -77 154t76 150.5
t198 60.5t196 -64.5t74 -146.5t-79 -154q121 -74 121 -194zM634 1489v-151h-287l-29 -110q35 3 52 3q111 0 193.5 -71t82.5 -181t-89.5 -187t-210.5 -77t-208 56.5t-110 158.5h196q38 -62 116 -62q49 0 84.5 28.5t35.5 75.5t-33 75.5t-81 28.5t-96 -39l-153 29l108 423h429z
M461 -37l627 1545h171l-627 -1545h-171z" />
    <glyph glyph-name="seveneighths" unicode="&#x215e;" horiz-adv-x="1720" 
d="M1493 226q0 45 -37.5 70.5t-87.5 25.5t-89 -27t-39 -65t33 -65.5t94 -27.5q126 0 126 89zM1454 550q0 70 -92 70q-39 0 -61.5 -20t-22.5 -52t25 -54t65 -22t63 22.5t23 55.5zM1681 216q0 -95 -78.5 -164.5t-238.5 -69.5t-235 70t-75 176t118 182q-77 64 -77 154t76 150.5
t198 60.5t196 -64.5t74 -146.5t-79 -154q121 -74 121 -194zM74 1489h594v-81l-398 -693l-150 79l310 544h-356v151zM399 -37l626 1545h171l-626 -1545h-171z" />
    <glyph glyph-name="arrowleft" unicode="&#x2190;" horiz-adv-x="2048" 
d="M1968 567v-101h-1595q102 -102 198 -309h-78q-223 253 -414 341v45q177 71 413 333h76q-81 -170 -195 -309h1595z" />
    <glyph glyph-name="arrowup" unicode="&#x2191;" horiz-adv-x="1024" 
d="M563 -429h-101v1597q-139 -114 -309 -195v77q262 236 333 413h46q87 -192 340 -415v-77q-207 96 -309 197v-1597z" />
    <glyph glyph-name="arrowright" unicode="&#x2192;" horiz-adv-x="2048" 
d="M79 466v101h1595q-114 139 -195 309h76q237 -262 413 -333v-45q-191 -88 -414 -341h-77q95 207 197 309h-1595z" />
    <glyph glyph-name="arrowdown" unicode="&#x2193;" horiz-adv-x="1024" 
d="M462 1463h101v-1598q102 102 309 197v-77q-253 -223 -340 -414h-46q-71 176 -333 413v76q170 -81 309 -195v1598z" />
    <glyph glyph-name="arrowboth" unicode="&#x2194;" horiz-adv-x="2048" 
d="M1968 540v-45q-181 -79 -406 -337h-80q69 172 194 311h-1305q125 -139 194 -311h-80q-224 258 -406 337v45q182 79 406 338h80q-69 -172 -194 -311h1305q-125 139 -194 311h80q225 -259 406 -338z" />
    <glyph glyph-name="arrowupdn" unicode="&#x2195;" horiz-adv-x="1024" 
d="M489 1463h45q79 -182 337 -407v-80q-171 69 -311 195v-1306q140 126 311 194v-79q-258 -225 -337 -407h-45q-79 182 -337 407v79q171 -68 311 -194v1306q-140 -126 -311 -195v80q258 225 337 407z" />
    <glyph glyph-name="arrowupdnbse" unicode="&#x21a8;" horiz-adv-x="1024" 
d="M154 -522h717v-98h-717v98zM489 1463h45q79 -182 337 -407v-80q-171 69 -311 195v-1306q140 126 311 194v-79q-258 -225 -337 -407h-45q-79 182 -337 407v79q171 -68 311 -194v1306q-140 -126 -311 -195v80q258 225 337 407z" />
    <glyph glyph-name="partialdiff" unicode="&#x2202;" horiz-adv-x="1012" 
d="M274 354q0 -92 41.5 -140.5t99.5 -48.5q130 0 245.5 151.5t154.5 441.5l-44 1q-141 0 -256.5 -56t-178 -156.5t-62.5 -192.5zM604 1491q113 0 194 -57t130.5 -180t49.5 -311q0 -292 -102 -560q-77 -202 -218 -305t-291 -103t-236 92.5t-86 260.5t89.5 308t258.5 223.5
t393 83.5l41 -1q-1 192 -62.5 279.5t-156.5 87.5q-67 0 -119 -38t-109 -148l-137 84q52 141 150 212.5t211 71.5z" />
    <glyph glyph-name="increment" unicode="&#x2206;" horiz-adv-x="1253" 
d="M990 82l-399 967l-440 -967h839zM1226 0h-1200l628 1387z" />
    <glyph glyph-name="product" unicode="&#x220f;" horiz-adv-x="1685" 
d="M162 1508h1362v-1906h-191v1732h-978v-1732h-193v1906z" />
    <glyph glyph-name="summation" unicode="&#x2211;" horiz-adv-x="1460" 
d="M139 1508h1237v-164h-988l607 -775l-649 -806h1040v-161h-1264v187l620 772l-603 772v175z" />
    <glyph glyph-name="minus" unicode="&#x2212;" 
d="M115 860h999v-250h-999v250z" />
    <glyph glyph-name="periodcentered" unicode="&#x2219;" horiz-adv-x="573" 
d="M287 892q65 0 111 -46t46 -111t-46 -111t-111 -46t-111 46t-46 111t46 111t111 46z" />
    <glyph glyph-name="radical" unicode="&#x221a;" horiz-adv-x="1124" 
d="M1047 1869h74l-312 -1947l-496 1021l-198 -91l-34 64l301 151l405 -823z" />
    <glyph glyph-name="infinity" unicode="&#x221e;" horiz-adv-x="1460" 
d="M403 867q-47 0 -80 -37.5t-33 -103.5t32.5 -104.5t76.5 -38.5q45 -1 87 29t107 114q-100 141 -190 141zM1012 521q68 0 109.5 58.5t41.5 148.5t-44.5 143t-104.5 53t-111.5 -38.5t-130.5 -161.5q84 -129 128 -166t112 -37zM1002 1071q133 0 220 -94t87 -255t-87 -255
t-220 -94q-90 0 -167.5 50.5t-155.5 177.5q-59 -82 -137 -127t-150 -45q-103 0 -172.5 80t-69.5 213t69.5 212.5t172.5 79.5q72 0 150 -44.5t137 -126.5q77 126 155 177t168 51z" />
    <glyph glyph-name="orthogonal" unicode="&#x221f;" horiz-adv-x="2005" 
d="M362 1279h100v-1179h1181v-100h-1281v1279z" />
    <glyph glyph-name="intersection" unicode="&#x2229;" horiz-adv-x="1206" 
d="M239 0h-110v621l2 238q2 239 60 346.5t156 197t256 89.5q118 0 225 -68.5t165 -174t71.5 -224t13.5 -404.5v-621h-110v628q0 243 -10 348.5t-52 190t-127.5 139.5t-175.5 55t-174.5 -55t-126 -137t-52.5 -189.5t-11 -351.5v-628z" />
    <glyph glyph-name="integral" unicode="&#x222b;" horiz-adv-x="561" 
d="M208 -64q39 0 39 52t-9 129q-37 316 -37 883t70 739q25 60 71 92t94 32t86 -32.5t38 -76.5t-26.5 -73t-63.5 -29t-69 28t-49 28q-40 0 -40 -53t23 -309t23 -418q0 -161 -15 -661q-9 -305 -84 -410q-55 -77 -141 -77q-52 0 -85 34t-33 82t25 76t65 28t69 -32t49 -32z" />
    <glyph glyph-name="approxequal" unicode="&#x2248;" horiz-adv-x="1124" 
d="M280 716q81 0 157.5 -21.5t181.5 -72.5q105 -52 135 -60t65 -8q111 0 258 113v-323q-126 -71 -247 -71q-66 0 -133 17.5t-191 72.5t-156 63.5t-74 8.5q-86 0 -229 -112v319q152 74 233 74zM280 1198q81 0 157.5 -21t181.5 -73t135 -60t65 -8q111 0 258 113v-322
q-126 -72 -247 -72q-66 0 -133 18.5t-191 72.5t-156 63t-74 9q-86 0 -229 -112v318q152 74 233 74z" />
    <glyph glyph-name="notequal" unicode="&#x2260;" horiz-adv-x="1124" 
d="M1061 1074v-250h-365l-76 -178h441v-250h-548l-186 -433h-193l186 433h-258v250h365l76 178h-441v250h548l186 434h193l-186 -434h258z" />
    <glyph glyph-name="equivalence" unicode="&#x2261;" 
d="M115 432h999v-250h-999v250zM115 860h999v-250h-999v250zM115 1288h999v-250h-999v250z" />
    <glyph glyph-name="lessequal" unicode="&#x2264;" horiz-adv-x="1124" 
d="M62 206h999v-250h-999v250zM1061 568v-250l-999 509v221l999 508v-249l-712 -370z" />
    <glyph glyph-name="greaterequal" unicode="&#x2265;" horiz-adv-x="1124" 
d="M1061 206v-250h-999v250h999zM62 568l713 369l-713 370v249l999 -508v-221l-999 -509v250z" />
    <glyph glyph-name="house" unicode="&#x2302;" 
d="M234 81h761v519l-381 427l-380 -427v-519zM153 0v634l461 519l462 -519v-634h-923z" />
    <glyph glyph-name="revlogicalnot" unicode="&#x2310;" 
d="M1114 1074v-249h-749v-428h-250v677h999z" />
    <glyph glyph-name="integraltp" unicode="&#x2320;" 
d="M687 -515h-145v1811q0 207 86 324t206 117q74 -1 106 -35t32 -74t-26 -66t-62 -26q-34 0 -56 14t-44 48q-22 36 -48 36t-38 -24t-11 -154v-1971z" />
    <glyph glyph-name="integralbt" unicode="&#x2321;" 
d="M542 1737h145v-1811q0 -207 -86 -324t-206 -117q-59 0 -99 28t-39 75q1 46 27 72t60 26t56 -14t44 -49t49 -35q25 0 37 24t12 154v1971z" />
    <glyph glyph-name="SF100000" unicode="&#x2500;" horiz-adv-x="1460" 
d="M1478 534h-1496v175h1496v-175z" />
    <glyph glyph-name="SF110000" unicode="&#x2502;" horiz-adv-x="1270" 
d="M452 -621v2485h175v-2485h-175z" />
    <glyph glyph-name="SF010000" unicode="&#x250c;" horiz-adv-x="1460" 
d="M1479 709v-175h-661v-1155h-175v1330h836z" />
    <glyph glyph-name="SF030000" unicode="&#x2510;" horiz-adv-x="1460" 
d="M642 534h-660v175h835v-1330h-175v1155z" />
    <glyph glyph-name="SF020000" unicode="&#x2514;" horiz-adv-x="1460" 
d="M643 534v1330h175v-1155h661v-175h-836z" />
    <glyph glyph-name="SF040000" unicode="&#x2518;" horiz-adv-x="1460" 
d="M817 534h-835v175h660v1155h175v-1330z" />
    <glyph glyph-name="SF080000" unicode="&#x251c;" horiz-adv-x="1460" 
d="M643 -621v2485h175v-1155h661v-175h-661v-1155h-175z" />
    <glyph glyph-name="SF090000" unicode="&#x2524;" horiz-adv-x="1460" 
d="M642 -621v1155h-660v175h660v1155h175v-2485h-175z" />
    <glyph glyph-name="SF060000" unicode="&#x252c;" horiz-adv-x="1460" 
d="M642 534h-660v175h1496v-175h-661v-1155h-175v1155z" />
    <glyph glyph-name="SF070000" unicode="&#x2534;" horiz-adv-x="1460" 
d="M1478 534h-1496v175h660v1155h175v-1155h661v-175z" />
    <glyph glyph-name="SF050000" unicode="&#x253c;" horiz-adv-x="1460" 
d="M642 534h-660v175h660v1155h175v-1155h661v-175h-661v-1155h-175v1155z" />
    <glyph glyph-name="SF430000" unicode="&#x2550;" horiz-adv-x="1460" 
d="M1478 344h-1496v175h1496v-175zM1478 724h-1496v175h1496v-175z" />
    <glyph glyph-name="SF240000" unicode="&#x2551;" horiz-adv-x="1460" 
d="M453 -621v2485h175v-2485h-175zM833 -621v2485h175v-2485h-175z" />
    <glyph glyph-name="SF510000" unicode="&#x2552;" horiz-adv-x="1460" 
d="M643 -621v1520h836v-175h-661v-205h661v-175h-661v-965h-175z" />
    <glyph glyph-name="SF520000" unicode="&#x2553;" horiz-adv-x="1460" 
d="M453 -621v1330h1026v-175h-471v-1155h-175v1140h-205v-1140h-175z" />
    <glyph glyph-name="SF390000" unicode="&#x2554;" horiz-adv-x="1460" 
d="M1008 344v-965h-175v1140h645v-175h-470zM628 -621h-175v1520h1025v-175h-850v-1345z" />
    <glyph glyph-name="SF220000" unicode="&#x2555;" horiz-adv-x="1460" 
d="M642 344h-660v175h660v205h-660v175h835v-1520h-175v965z" />
    <glyph glyph-name="SF210000" unicode="&#x2556;" horiz-adv-x="1460" 
d="M452 -621v1155h-470v175h1025v-1330h-175v1155h-205v-1155h-175z" />
    <glyph glyph-name="SF250000" unicode="&#x2557;" horiz-adv-x="1460" 
d="M452 344h-470v175h645v-1140h-175v965zM832 -621v1345h-850v175h1025v-1520h-175z" />
    <glyph glyph-name="SF500000" unicode="&#x2558;" horiz-adv-x="1460" 
d="M643 344v1520h175v-965h661v-175h-661v-205h661v-175h-836z" />
    <glyph glyph-name="SF490000" unicode="&#x2559;" horiz-adv-x="1460" 
d="M1478 534h-1025v1330h175v-1155h205v1155h175v-1155h470v-175z" />
    <glyph glyph-name="SF380000" unicode="&#x255a;" horiz-adv-x="1460" 
d="M1008 899h470v-175h-645v1140h175v-965zM628 1864v-1345h850v-175h-1025v1520h175z" />
    <glyph glyph-name="SF280000" unicode="&#x255b;" horiz-adv-x="1460" 
d="M817 344h-835v175h660v205h-660v175h660v965h175v-1520z" />
    <glyph glyph-name="SF270000" unicode="&#x255c;" horiz-adv-x="1460" 
d="M1007 534h-1025v175h470v1155h175v-1155h205v1155h175v-1330z" />
    <glyph glyph-name="SF260000" unicode="&#x255d;" horiz-adv-x="1460" 
d="M452 899v965h175v-1140h-645v175h470zM832 1864h175v-1520h-1025v175h850v1345z" />
    <glyph glyph-name="SF360000" unicode="&#x255e;" horiz-adv-x="1460" 
d="M643 -621v2485h175v-965h661v-175h-661v-205h661v-175h-661v-965h-175z" />
    <glyph glyph-name="SF370000" unicode="&#x255f;" horiz-adv-x="1460" 
d="M453 -621v2485h175v-2485h-175zM833 -621v2485h175v-1155h471v-175h-471v-1155h-175z" />
    <glyph glyph-name="SF420000" unicode="&#x2560;" horiz-adv-x="1460" 
d="M833 -621v1140h646v-175h-471v-965h-175zM833 724v1140h175v-965h471v-175h-646zM453 -621v2485h175v-2485h-175z" />
    <glyph glyph-name="SF190000" unicode="&#x2561;" horiz-adv-x="1460" 
d="M642 344h-660v175h660v205h-660v175h660v965h175v-2485h-175v965z" />
    <glyph glyph-name="SF200000" unicode="&#x2562;" horiz-adv-x="1460" 
d="M832 -621v2485h175v-2485h-175zM452 -621v1155h-470v175h470v1155h175v-2485h-175z" />
    <glyph glyph-name="SF230000" unicode="&#x2563;" horiz-adv-x="1460" 
d="M452 344h-470v175h645v-1140h-175v965zM627 1864v-1140h-645v175h470v965h175zM832 -621v2485h175v-2485h-175z" />
    <glyph glyph-name="SF470000" unicode="&#x2564;" horiz-adv-x="1460" 
d="M642 344h-660v175h1496v-175h-661v-965h-175v965zM1478 724h-1496v175h1496v-175z" />
    <glyph glyph-name="SF480000" unicode="&#x2565;" horiz-adv-x="1460" 
d="M452 -621v1155h-470v175h1496v-175h-471v-1155h-175v1140h-205v-1140h-175z" />
    <glyph glyph-name="SF410000" unicode="&#x2566;" horiz-adv-x="1460" 
d="M832 -621v1140h646v-175h-471v-965h-175zM452 344h-470v175h645v-1140h-175v965zM1478 724h-1496v175h1496v-175z" />
    <glyph glyph-name="SF450000" unicode="&#x2567;" horiz-adv-x="1460" 
d="M1478 344h-1496v175h1496v-175zM1478 724h-1496v175h660v965h175v-965h661v-175z" />
    <glyph glyph-name="SF460000" unicode="&#x2568;" horiz-adv-x="1460" 
d="M1478 534h-1496v175h470v1155h175v-1155h205v1155h175v-1155h471v-175z" />
    <glyph glyph-name="SF400000" unicode="&#x2569;" horiz-adv-x="1460" 
d="M1478 344h-1496v175h1496v-175zM1478 724h-646v1140h175v-965h471v-175zM627 724h-645v175h470v965h175v-1140z" />
    <glyph glyph-name="SF540000" unicode="&#x256a;" horiz-adv-x="1460" 
d="M642 344h-660v175h660v205h-660v175h660v965h175v-965h661v-175h-661v-205h661v-175h-661v-965h-175v965z" />
    <glyph glyph-name="SF530000" unicode="&#x256b;" horiz-adv-x="1460" 
d="M452 -621v1155h-470v175h470v1155h175v-1155h205v1155h175v-1155h471v-175h-471v-1155h-175v1155h-205v-1155h-175z" />
    <glyph glyph-name="SF440000" unicode="&#x256c;" horiz-adv-x="1460" 
d="M1008 344v-965h-175v1140h645v-175h-470zM452 344h-470v175h645v-1140h-175v965zM452 899v965h175v-1140h-645v175h470zM1008 899h470v-175h-645v1140h175v-965z" />
    <glyph glyph-name="upblock" unicode="&#x2580;" horiz-adv-x="1460" 
d="M1478 621h-1496v1243h1496v-1243z" />
    <glyph glyph-name="dnblock" unicode="&#x2584;" horiz-adv-x="1460" 
d="M1478 -621h-1496v1242h1496v-1242z" />
    <glyph glyph-name="block" unicode="&#x2588;" horiz-adv-x="1460" 
d="M-18 -621v2485h1496v-2485h-1496z" />
    <glyph glyph-name="lfblock" unicode="&#x258c;" horiz-adv-x="1460" 
d="M-18 -621v2485h748v-2485h-748z" />
    <glyph glyph-name="rtblock" unicode="&#x2590;" horiz-adv-x="1460" 
d="M730 -621v2485h748v-2485h-748z" />
    <glyph glyph-name="ltshade" unicode="&#x2591;" horiz-adv-x="1460" 
d="M1353 -379h125v-125h-125v125zM855 -379h124v-125h-124v125zM356 -379h125v-125h-125v125zM107 -130h125v-125h-125v125zM605 -130h125v-125h-125v125zM1104 -130h125v-125h-125v125zM1353 119h125v-124h-125v124zM855 119h124v-124h-124v124zM356 119h125v-124h-125v124
zM1104 369h125v-125h-125v125zM605 369h125v-125h-125v125zM107 369h125v-125h-125v125zM356 618h125v-125h-125v125zM855 618h124v-125h-124v125zM1353 618h125v-125h-125v125zM1104 867h125v-125h-125v125zM605 867h125v-125h-125v125zM107 867h125v-125h-125v125z
M356 1116h125v-124h-125v124zM855 1116h124v-124h-124v124zM1353 1116h125v-124h-125v124zM107 1366h125v-125h-125v125zM605 1366h125v-125h-125v125zM1104 1366h125v-125h-125v125zM1353 1615h125v-125h-125v125zM855 1615h124v-125h-124v125zM356 1615h125v-125h-125v125
zM1104 1864h125v-125h-125v125zM605 1864h125v-125h-125v125zM107 1864h125v-125h-125v125z" />
    <glyph glyph-name="shade" unicode="&#x2592;" horiz-adv-x="1460" 
d="M1228 -379h125v-125h-125v125zM979 -379h125v-125h-125v125zM730 -379h124v-125h-124v125zM480 -379h125v-125h-125v125zM231 -379h125v-125h-125v125zM-18 -379h125v-125h-125v125zM107 -130h124v-125h-124v125zM356 -130h124v-125h-124v125zM605 -130h125v-125h-125
v125zM854 -130h125v-125h-125v125zM1104 -130h124v-125h-124v125zM1353 -130h124v-125h-124v125zM1228 119h125v-124h-125v124zM979 119h125v-124h-125v124zM730 119h124v-124h-124v124zM480 119h125v-124h-125v124zM231 119h125v-124h-125v124zM-18 119h125v-124h-125v124z
M107 369h124v-125h-124v125zM356 369h124v-125h-124v125zM605 369h125v-125h-125v125zM854 369h125v-125h-125v125zM1104 369h124v-125h-124v125zM1353 369h124v-125h-124v125zM231 618h125v-125h-125v125zM1228 618h125v-125h-125v125zM979 618h125v-125h-125v125zM730 618
h124v-125h-124v125zM480 618h125v-125h-125v125zM-18 618h125v-125h-125v125zM1353 867h124v-125h-124v125zM1104 867h124v-125h-124v125zM854 867h125v-125h-125v125zM605 867h125v-125h-125v125zM356 867h124v-125h-124v125zM107 867h124v-125h-124v125zM1228 1116h125
v-124h-125v124zM979 1116h125v-124h-125v124zM730 1116h124v-124h-124v124zM480 1116h125v-124h-125v124zM231 1116h125v-124h-125v124zM-18 1116h125v-124h-125v124zM1353 1366h124v-125h-124v125zM1104 1366h124v-125h-124v125zM854 1366h125v-125h-125v125zM605 1366h125
v-125h-125v125zM356 1366h124v-125h-124v125zM107 1366h124v-125h-124v125zM1228 1615h125v-125h-125v125zM979 1615h125v-125h-125v125zM730 1615h124v-125h-124v125zM480 1615h125v-125h-125v125zM231 1615h125v-125h-125v125zM-18 1615h125v-125h-125v125zM1353 1864h124
v-125h-124v125zM1104 1864h124v-125h-124v125zM854 1864h125v-125h-125v125zM605 1864h125v-125h-125v125zM356 1864h124v-125h-124v125zM107 1864h124v-125h-124v125z" />
    <glyph glyph-name="dkshade" unicode="&#x2593;" horiz-adv-x="1495" 
d="M1122 -379v-125h124v125h-124zM872 -379v-125h125v125h-125zM623 -379v-125h125v125h-125zM374 -379v-125h124v125h-124zM125 -379v-125h124v125h-124zM374 -255v125h-125v-125h125zM623 -255v125h-125v-125h125zM872 -255v125h-124v-125h124zM1122 -255v125h-125v-125
h125zM1371 -255v125h-125v-125h125zM1122 119v-124h124v124h-124zM872 119v-124h125v124h-125zM623 119v-124h125v124h-125zM374 119v-124h124v124h-124zM125 119v-124h124v124h-124zM374 244v125h-125v-125h125zM623 244v125h-125v-125h125zM872 244v125h-124v-125h124z
M1122 244v125h-125v-125h125zM1371 244v125h-125v-125h125zM1122 618v-125h124v125h-124zM872 618v-125h125v125h-125zM498 493v125h-124v-125h124zM623 618v-125h125v125h-125zM125 618v-125h124v125h-124zM1246 867v-125h125v125h-125zM997 867v-125h125v125h-125z
M748 867v-125h124v125h-124zM498 867v-125h125v125h-125zM374 867h-125v-125h125v125zM1122 1116v-124h124v124h-124zM872 1116v-124h125v124h-125zM623 1116v-124h125v124h-125zM374 1116v-124h124v124h-124zM125 1116v-124h124v124h-124zM374 1366h-125v-125h125v125z
M623 1366h-125v-125h125v125zM872 1366h-124v-125h124v125zM1122 1366h-125v-125h125v125zM1371 1366h-125v-125h125v125zM1122 1615v-125h124v125h-124zM872 1615v-125h125v125h-125zM623 1615v-125h125v125h-125zM374 1615v-125h124v125h-124zM125 1615v-125h124v125h-124
zM1495 1490v-374h-124v-124h124v-374h-124v-125h124v-374h-124v-124h124v-374h-124v-125h124v-124h-1495v373h125v125h-125v374h125v125h-125v373h125v125h-125v374h125v125h-125v373h125v125h124v-125h125v125h124v-125h125v125h125v-125h124v125h125v-125h125v125h124
v-125h125v125h124v-249h-124v-125h124z" />
    <glyph glyph-name="filledbox" unicode="&#x25a0;" horiz-adv-x="1237" 
d="M146 944h944v-944h-944v944z" />
    <glyph glyph-name="H22073" unicode="&#x25a1;" horiz-adv-x="1237" 
d="M222 868v-792h792v792h-792zM146 944h944v-944h-944v944z" />
    <glyph glyph-name="H18543" unicode="&#x25aa;" horiz-adv-x="726" 
d="M594 445h-463v463l463 1v-464z" />
    <glyph glyph-name="H18551" unicode="&#x25ab;" horiz-adv-x="726" 
d="M207 521h311v312l-311 -1v-311zM594 445h-463v463l463 1v-464z" />
    <glyph glyph-name="filledrect" unicode="&#x25ac;" horiz-adv-x="2048" 
d="M0 703h2047v-386h-2047v386z" />
    <glyph glyph-name="triagup" unicode="&#x25b2;" horiz-adv-x="2027" 
d="M304 0l710 1419l710 -1419h-1420z" />
    <glyph glyph-name="triagrt" unicode="&#x25ba;" horiz-adv-x="2027" 
d="M288 1417l1451 -724l-1451 -724v1448z" />
    <glyph glyph-name="triagdn" unicode="&#x25bc;" horiz-adv-x="2027" 
d="M1724 1388l-710 -1419l-710 1419h1420z" />
    <glyph glyph-name="triaglf" unicode="&#x25c4;" horiz-adv-x="2027" 
d="M1739 1417v-1448l-1451 724z" />
    <glyph glyph-name="lozenge" unicode="&#x25ca;" horiz-adv-x="1012" 
d="M495 1325l-340 -616l340 -615l359 615zM549 1422l418 -713l-418 -709h-111l-391 709l391 713h111z" />
    <glyph glyph-name="circle" unicode="&#x25cb;" 
d="M979 578q0 150 -107 257q-108 107 -258 107t-257 -108t-107 -256q0 -149 107 -257t257 -108q150 -1 258 107q107 108 107 258zM1055 578q1 -182 -129 -312t-312 -129q-182 0 -311 129q-129 130 -129 312t130 311t311 129q182 0 311 -129t129 -311z" />
    <glyph glyph-name="H18533" unicode="&#x25cf;" horiz-adv-x="1237" 
d="M620 1018q180 0 309.5 -129t129.5 -311t-129 -311.5t-311 -129.5t-311.5 129.5t-129.5 315.5t131 311t311 125z" />
    <glyph glyph-name="invbullet" unicode="&#x25d8;" 
d="M816 490q0 82 -59 142t-142 60t-143 -59t-60 -143t60 -142q60 -60 142 -60q84 0 143 60t59 142zM124 0v980h980v-980h-980z" />
    <glyph glyph-name="invcircle" unicode="&#x25d9;" 
d="M980 578q0 -151 -107 -258t-257 -107t-258 107q-107 108 -107 258q-1 150 107 257t258 107t257 -106t107 -258zM1056 577q0 181 -130 311t-311 130q-182 0 -311 -130t-129 -311t129 -311t311 -129q181 -1 311 129t130 311zM38 0v1155h1155v-1155h-1155z" />
    <glyph glyph-name="openbullet" unicode="&#x25e6;" horiz-adv-x="726" 
d="M363 852q-71 0 -123 -50t-52 -124t51.5 -125t123.5 -51t123.5 51t51.5 125t-52 124t-123 50zM362 928q102 0 177 -72t75 -178t-73.5 -179t-177.5 -73t-177.5 73.5t-73.5 177.5t74 177.5t176 73.5z" />
    <glyph glyph-name="smileface" unicode="&#x263a;" horiz-adv-x="2091" 
d="M1046 205q153 0 231 144l63 -36q-104 -195 -294 -195t-294 195l62 36q79 -144 232 -144zM1371 650q0 -34 -24 -57q-24 -24 -57 -24t-57 24q-24 23 -24 57t24 58t57 23q33 1 57 -23t24 -58zM882 650q0 -34 -24 -57q-24 -24 -56 -24q-34 0 -58 24q-24 23 -24 57t24 58
t58 23q34 1 56 -23q24 -24 24 -58zM1591 518q-1 224 -161 385q-160 160 -384 160t-385 -160q-160 -161 -160 -385t160 -384q161 -160 385 -160t384 160t161 384zM1683 520q0 -264 -187 -452q-186 -188 -450 -187t-451 187t-187 450t188 450q188 188 450 188q264 0 450 -186
t187 -450z" />
    <glyph glyph-name="invsmileface" unicode="&#x263b;" horiz-adv-x="2155" 
d="M1078 118q190 0 294 195l-63 36q-78 -144 -231 -144t-232 144l-62 -36q104 -195 294 -195zM1403 650q0 34 -24 58t-57 23q-33 1 -57 -23t-24 -58t24 -57q24 -24 57 -24t57 24q24 23 24 57zM914 650q0 34 -24 58t-56 23q-34 1 -58 -23t-24 -58t24 -57q24 -24 58 -24t56 24
q24 23 24 57zM1715 520q0 -264 -187 -452q-186 -188 -450 -187t-451 187t-187 450t188 450q188 188 450 188q264 0 450 -186t187 -450z" />
    <glyph glyph-name="sun" unicode="&#x263c;" horiz-adv-x="1878" 
d="M1450 700q0 212 -150 361q-150 150 -362 150q-212 -1 -362 -151t-151 -361q1 -211 151 -362t361 -151t362 151t151 363zM902 1621h76v-337q191 -7 350 -140l289 283l52 -53l-286 -286q140 -175 143 -358h336v-69h-336q-14 -190 -143 -348l286 -289l-57 -51l-284 280
q-167 -125 -350 -139v-337h-76v337q-203 25 -345 139l-296 -280l-49 51l284 289q-125 153 -144 352h-336v69h336q14 197 144 349l-284 287l49 57l291 -283q180 130 350 140v337z" />
    <glyph glyph-name="female" unicode="&#x2640;" horiz-adv-x="1131" 
d="M992 955q0 176 -125 301t-301 125q-176 1 -302 -125t-126 -302t126 -300q126 -126 301 -126t301 126t126 301zM591 116h417v-54h-417v-399h-54v399h-418v54h418v365q-81 -1 -189 51t-184 168q-75 116 -75 256q-1 196 139 336t336 140t337 -140q140 -140 140 -330
q1 -190 -127 -330q-128 -138 -323 -151v-365z" />
    <glyph glyph-name="male" unicode="&#x2642;" horiz-adv-x="1366" 
d="M528 516q-156 0 -269 -114q-114 -114 -114 -276q1 -164 117 -274t276 -111t272 113t111 276t-119 274t-274 112zM1047 81q0 -188 -133 -304t-332 -116q-200 1 -340 135t-140 322t130 316t307 128q76 0 170 -33l293 636q-214 -90 -457 -104v27q165 52 255 98t307 186
l29 -10q35 -359 161 -615l-25 -16q-149 188 -222 415l-295 -635q110 -42 201 -162t91 -268z" />
    <glyph glyph-name="spade" unicode="&#x2660;" horiz-adv-x="1092" 
d="M1032 492q0 -89 -64 -153t-156 -64q-154 0 -254 190q0 -229 101 -325t277 -103l7 -37h-793l8 37q182 0 282 105t101 282v41q-90 -190 -262 -190q-91 0 -155 66t-64 155q0 150 188 305q262 215 299 430q19 -82 65 -169t186 -214t186 -197q48 -70 48 -159z" />
    <glyph glyph-name="club" unicode="&#x2663;" horiz-adv-x="1354" 
d="M328 273q-104 0 -186 81q-82 82 -82 196t72 196t170 82q64 0 163 -51q-67 106 -67 182q0 113 79 193t197 79q118 1 198 -79t81 -181q0 -101 -69 -194q106 53 162 53q105 0 176 -82t71 -196t-81 -196t-193 -82q-78 0 -167 50t-165 187q7 -289 171 -395q78 -51 237 -82
l8 -34h-848l8 34q153 32 219 68t126 139q58 103 58 228l-1 42q-55 -117 -143 -177t-194 -61z" />
    <glyph glyph-name="heart" unicode="&#x2665;" horiz-adv-x="1210" 
d="M60 982q0 96 74 172t183 76q206 0 290 -251q33 129 113 191t180 61q100 0 176 -75q74 -75 74 -168t-40 -188t-174 -264q-284 -360 -329 -560q-33 122 -93 228t-218 315q-158 208 -197 287t-39 176z" />
    <glyph glyph-name="diamond" unicode="&#x2666;" horiz-adv-x="1038" 
d="M517 1231q193 -323 461 -627q-52 -52 -214 -265t-247 -363q-101 190 -457 628q324 383 457 627z" />
    <glyph glyph-name="musicalnote" unicode="&#x266a;" horiz-adv-x="1579" 
d="M1554 941q0 -17 -20 -45t-44 -28t-68 55q-45 55 -185 179t-242 188l26 -1374q1 -122 -71 -193t-218 -131t-291 -61q-197 0 -306 99t-109 228q0 159 162 279t364 120q201 0 405 -94l-31 1372h60q164 -100 366 -309t202 -285z" />
    <glyph glyph-name="musicalnotedbl" unicode="&#x266b;" horiz-adv-x="2048" 
d="M1766 185q0 -148 -38 -221t-124 -121q-88 -48 -217 -48t-197 77t-67 190q0 113 90 198t234 85q84 0 200 -50v850l-699 -217v-981q0 -123 -30 -203t-120 -136q-92 -56 -215 -57q-123 0 -201 69t-78 195q0 125 93 207t230 82q95 0 205 -54v1145l934 291v-1301z" />
    <glyph glyph-name="apple" unicode="&#xf000;" horiz-adv-x="1617" 
 />
    <glyph glyph-name="fi" unicode="&#xf001;" horiz-adv-x="1064" 
d="M668 1088h273v-1088h-273v1088zM524 1307q-43 0 -78.5 -24t-51.5 -61t-15 -134h160v-230h-160v-858h-274v858h-101v230h101q0 165 45.5 253t142 141.5t225.5 53.5t216.5 -39t137.5 -106.5t69 -180.5h-284q-31 97 -133 97z" />
    <glyph glyph-name="fi" unicode="&#xfb01;" horiz-adv-x="1064" 
d="M668 1088h273v-1088h-273v1088zM524 1307q-43 0 -78.5 -24t-51.5 -61t-15 -134h160v-230h-160v-858h-274v858h-101v230h101q0 165 45.5 253t142 141.5t225.5 53.5t216.5 -39t137.5 -106.5t69 -180.5h-284q-31 97 -133 97z" />
    <glyph glyph-name="fl" unicode="&#xf002;" horiz-adv-x="1064" 
d="M4 1088h102q0 162 46.5 253t140.5 143t233 52t233.5 -52.5t138.5 -136.5t44 -259v-1088h-274v1067q0 135 -26 178q-37 62 -124 62t-113 -64t-26 -155h159v-230h-159v-858h-273v858h-102v230z" />
    <glyph glyph-name="fl" unicode="&#xfb02;" horiz-adv-x="1064" 
d="M4 1088h102q0 162 46.5 253t140.5 143t233 52t233.5 -52.5t138.5 -136.5t44 -259v-1088h-274v1067q0 135 -26 178q-37 62 -124 62t-113 -64t-26 -155h159v-230h-159v-858h-273v858h-102v230z" />
    <glyph glyph-name="foursuperior" unicode="&#xf003;" horiz-adv-x="688" 
d="M413 1023v269l-217 -269h217zM582 1508v-485h78v-140h-78v-150h-169v150h-395v148l382 477h182z" />
    <glyph glyph-name="commaaccent" unicode="&#xf004;" horiz-adv-x="574" 
d="M252 -75l172 -90l-221 -379l-123 59z" />
    <glyph glyph-name="undercommaaccent" unicode="&#xf005;" horiz-adv-x="682" 
d="M322 -75q117 0 175.5 -52.5t58.5 -125.5t-65 -133.5t-170 -60.5t-216 36l35 131q70 -16 110 -16q106 0 106 71q0 57 -81 57q-24 0 -75 -5l26 94q61 4 96 4z" />
    <glyph glyph-name="pi1" unicode="&#xf006;" horiz-adv-x="1124" 
d="M0 1063h1124v-202h-169v-861h-288v861h-208v-861h-292v861h-167v202z" />
    <glyph glyph-name="noGamma" unicode="&#xf100;" horiz-adv-x="1101" 
d="M167 1467h900v-228h-599v-1239h-301v1467z" />
    <glyph glyph-name="noTheta" unicode="&#xf101;" horiz-adv-x="1635" 
d="M559 865h521v-231h-521v231zM828 1290q-201 0 -310 -130t-109 -428t111.5 -427.5t296.5 -129.5q125 0 268.5 91.5t143.5 463.5q0 325 -118.5 442.5t-282.5 117.5zM828 1503q326 0 518 -194.5t192 -574.5t-192.5 -577.5t-510.5 -197.5q-366 0 -552.5 206.5t-186.5 560.5
t181 565.5t551 211.5z" />
    <glyph glyph-name="noPhi" unicode="&#xf102;" horiz-adv-x="1896" 
d="M1487 726q0 177 -103.5 283.5t-286.5 113.5v-798q119 12 202 51.5t135.5 133t52.5 216.5zM406 728q0 -92 33 -180.5t122 -152.5t233 -70v800q-141 -7 -231 -70t-123.5 -149t-33.5 -178zM794 1503h303v-168q703 -34 703 -605q0 -302 -189 -456t-513 -161v-288h-304v288
q-362 15 -530 175t-168 432q0 161 56 289.5t206.5 220t435.5 107.5v166z" />
    <glyph glyph-name="noalpha" unicode="&#xf103;" horiz-adv-x="1352" 
d="M652 894q-132 0 -201 -99t-69 -279t76 -265t196 -85t196 100t76 268t-71 264t-203 96zM544 -28q-209 0 -334 140.5t-125 386.5t128.5 413.5t359.5 167.5t373 -230q11 86 45 201h284q-70 -222 -70 -505t86 -546h-285q-38 118 -54 228q-137 -256 -408 -256z" />
    <glyph glyph-name="nodelta" unicode="&#xf104;" horiz-adv-x="1347" 
d="M677 816q-294 0 -294 -339q0 -144 74.5 -231.5t215.5 -87.5t216.5 90t75.5 244t-76 239t-212 85zM393 1295q0 115 106 187.5t312 72.5q94 0 264 -35v-191q-120 27 -203 27q-187 0 -187 -94q0 -39 35.5 -79t140.5 -117q213 -155 307 -281t94 -300q0 -227 -153 -370
t-437 -143t-435.5 149t-151.5 363t143.5 346.5t396.5 127.5q-232 176 -232 337z" />
    <glyph glyph-name="noepsilon" unicode="&#xf105;" horiz-adv-x="1113" 
d="M730 -28q-184 0 -335.5 66.5t-230.5 195t-79 289.5q0 243 167 400t500 157q135 0 256 -27v-199q-120 28 -260 28t-241 -67.5t-117 -183.5h613v-187h-613q39 -274 399 -274q116 0 238 25v-198q-113 -25 -297 -25z" />
    <glyph glyph-name="nosigma" unicode="&#xf106;" horiz-adv-x="1509" 
d="M667 911q-136 0 -211.5 -95.5t-75.5 -281.5t77 -281t213 -95t215.5 98t79.5 282t-81 278.5t-217 94.5zM1474 1063v-202h-328q113 -129 113 -325q0 -247 -159.5 -405.5t-427.5 -158.5t-427.5 160t-159.5 404t167 394t389 150l300 -17h533z" />
    <glyph glyph-name="notau" unicode="&#xf107;" horiz-adv-x="1110" 
d="M34 1063h1043v-204h-377v-859h-290v859h-376v204z" />
    <glyph glyph-name="nophi" unicode="&#xf108;" horiz-adv-x="1659" 
d="M1277 538q0 158 -76 256t-226 100v-727q302 16 302 371zM382 524q0 -178 83 -267.5t219 -89.5v727q-302 -14 -302 -370zM683 1331h290v-255q319 -15 460 -166.5t141 -373.5t-135.5 -374.5t-461.5 -174.5v-376h-296v374q-308 19 -452 164.5t-144 381.5q0 177 82.5 303
t195 172t320.5 73v252z" />
  </font>
</defs>
</svg>
