<?xml version="1.0" standalone="no"?>
<!DOCTYPE svg PUBLIC "-//W3C//DTD SVG 1.1//EN" "http://www.w3.org/Graphics/SVG/1.1/DTD/svg11.dtd" >
<svg xmlns="http://www.w3.org/2000/svg">
<metadata>
Created by FontPrep 20130207 at Thu Oct 19 18:04:52 2017
 By Giovanni Di Maggio
Typeface (c) The Monotype Corporation plc. Data (c) The Monotype Corporation plc / Type Solutions Inc. 1990-91 All Rights Reserved
</metadata>
<defs>
<font id="0055fdb458fa7b470a37f9e48d363a65" horiz-adv-x='1024' >
  <font-face 
    font-family="CenturyGothic-Italic"
    font-weight="400"
    font-style="italic"
    font-stretch="normal"
    units-per-em="2048"
    panose-1="2 11 5 2 2 2 2 9 2 4"
    ascent="1638"
    descent="-410"
    x-height="1088"
    cap-height="1471"
    bbox="-394 -628 2401 2170"
    underline-thickness="119"
    underline-position="-138"
    slope="-7.59999"
    unicode-range="U+0020-F108"
  />
<missing-glyph horiz-adv-x="1536" 
d="M288 32h960v1216h-960v-1216zM256 0v1280h1024v-1280h-1024z" />
    <glyph glyph-name=".notdef" horiz-adv-x="1536" 
d="M288 32h960v1216h-960v-1216zM256 0v1280h1024v-1280h-1024z" />
    <glyph glyph-name="glyph1" horiz-adv-x="0" 
 />
    <glyph glyph-name="glyph2" horiz-adv-x="567" 
 />
    <glyph glyph-name="space" unicode=" " horiz-adv-x="567" 
 />
    <glyph glyph-name="exclam" unicode="!" horiz-adv-x="604" 
d="M205 216q51 0 86.5 -36t35.5 -86t-35.5 -86t-86.5 -36t-86.5 36t-35.5 86t35.5 86t86.5 36zM317 1508h138l-151 -1141h-140z" />
    <glyph glyph-name="quotedbl" unicode="&#x22;" horiz-adv-x="633" 
d="M228 1045h-104l-22 463h148zM616 1045h-103l-22 463h148z" />
    <glyph glyph-name="numbersign" unicode="#" horiz-adv-x="1475" 
d="M940 936h-334l-49 -334h332zM1233 602v-108h-248l-72 -494h-112l72 494h-333l-76 -494h-110l76 494h-246v108h263l51 334h-253v109h269l70 468h107l-68 -468h332l68 468h112l-69 -468h224v-109h-240l-48 -334h231z" />
    <glyph glyph-name="dollar" unicode="$" horiz-adv-x="1135" 
d="M848 391q0 67 -43 129.5t-173 142.5l-80 -565q148 26 222 107t74 186zM349 1114q0 -143 182 -234l65 456q-114 -17 -180.5 -83.5t-66.5 -138.5zM992 391q0 -168 -126.5 -292t-335.5 -138l-45 -311h-132l48 320q-275 52 -382 298l129 65q47 -96 110.5 -149t161.5 -79
l90 623q-153 83 -214 155q-90 105 -90 208t52 186.5t149.5 136.5t209.5 57l17 109h131l-19 -120q91 -26 155 -71t131 -134l-114 -83q-60 73 -98.5 102t-91.5 48l-75 -504q199 -111 269 -207.5t70 -219.5z" />
    <glyph glyph-name="percent" unicode="%" horiz-adv-x="1587" 
d="M1170 551q-96 0 -175.5 -82.5t-79.5 -182.5t56.5 -159t157.5 -59t174 85t73 185t-55 156.5t-151 56.5zM1173 659q143 0 232.5 -87.5t89.5 -229.5t-106 -260.5t-286 -118.5q-136 0 -221.5 85.5t-85.5 230.5t117 262.5t260 117.5zM480 1399q-96 0 -175.5 -82t-79.5 -182
t56 -159t157 -59t174 85.5t73 185.5t-54.5 155.5t-150.5 55.5zM883 1364q-50 0 -127 5q48 -78 48 -164q0 -168 -112 -281t-264 -113t-237.5 85.5t-85.5 217.5q0 165 120 279.5t264 114.5q39 0 161 -25t233 -25q246 0 504 78h104l-1307 -1638h-116l1202 1510
q-178 -44 -387 -44z" />
    <glyph glyph-name="ampersand" unicode="&#x26;" horiz-adv-x="1550" 
d="M264 300q0 -88 66 -143t144 -55t184 46t289 160q-82 82 -316 386q-227 -138 -297 -222t-70 -172zM906 1160q0 48 -42 82t-120 34t-127 -43t-49 -113t104 -229q148 105 191 163t43 106zM115 298q0 86 34 159t106.5 143t289.5 214q-128 186 -128 310t97 209t237 85t223 -73
t83 -167t-60 -185t-241 -220q100 -132 223 -274l87 -103l112 83l92 72l92 -112q-113 -93 -199 -153q97 -123 260 -286h-200l-126 132q-26 29 -56 66q-313 -235 -546 -235t-306.5 124.5t-73.5 210.5z" />
    <glyph glyph-name="quotesingle" unicode="'" horiz-adv-x="405" 
d="M308 1045h-103l-22 463h148z" />
    <glyph glyph-name="parenleft" unicode="(" horiz-adv-x="756" 
d="M327 102q0 -300 63 -528h-154q-62 222 -62 555t100.5 716.5t278.5 690.5h162q-180 -287 -284 -658.5t-104 -775.5z" />
    <glyph glyph-name="parenright" unicode=")" horiz-adv-x="756" 
d="M320 958q0 348 -64 578h154q60 -218 60 -556t-99.5 -718.5t-277.5 -687.5h-162q180 286 284.5 661t104.5 723z" />
    <glyph glyph-name="asterisk" unicode="*" horiz-adv-x="870" 
d="M399 1508h130l-29 -297l246 176l66 -112l-277 -125l277 -123l-66 -113l-246 174l29 -297h-130l31 297l-246 -174l-66 113l281 123l-281 125l66 112l246 -176z" />
    <glyph glyph-name="plus" unicode="+" horiz-adv-x="1241" 
d="M552 804v434h137v-434h438v-137h-438v-434h-137v434h-437v137h437z" />
    <glyph glyph-name="comma" unicode="," horiz-adv-x="567" 
d="M187 270l127 -64l-256 -376l-94 41z" />
    <glyph glyph-name="hyphen" unicode="-" horiz-adv-x="680" 
d="M21 614h551l-18 -122h-550z" />
    <glyph glyph-name="hyphen" unicode="&#xad;" horiz-adv-x="680" 
d="M21 614h551l-18 -122h-550z" />
    <glyph glyph-name="period" unicode="." horiz-adv-x="567" 
d="M182 216q51 0 86.5 -36t35.5 -86t-35.5 -86t-86.5 -36t-86.5 36t-35.5 86t35.5 86t86.5 36z" />
    <glyph glyph-name="slash" unicode="/" horiz-adv-x="895" 
d="M836 1508l-611 -1708h-153l610 1708h154z" />
    <glyph glyph-name="zero" unicode="0" horiz-adv-x="1135" 
d="M630 1368q-100 0 -201 -87.5t-168 -292t-67 -487.5q0 -203 71 -301t177 -98t205 98.5t165 305.5t66 436t-74 327.5t-174 98.5zM644 1508q156 0 269.5 -144.5t113.5 -429.5t-93 -526.5t-223 -343t-260 -101.5t-215.5 59.5t-138 180t-52.5 311.5q0 317 89 553.5
t221.5 338.5t288.5 102z" />
    <glyph glyph-name="one" unicode="1" horiz-adv-x="1135" 
d="M451 1471h307l-195 -1471h-144l177 1329h-198z" />
    <glyph glyph-name="two" unicode="2" horiz-adv-x="1135" 
d="M572 1508q184 0 297 -110.5t113 -273.5q0 -114 -58 -226t-299 -374l-343 -379h631l-17 -145h-936l485 539q278 309 332.5 405t54.5 191t-74 165.5t-194 70.5t-201 -90t-88 -255h-149q12 230 137 356t309 126z" />
    <glyph glyph-name="three" unicode="3" horiz-adv-x="1135" 
d="M610 1508q162 0 270 -107.5t108 -275.5q0 -111 -53.5 -189t-185.5 -142q208 -121 208 -343q0 -131 -66.5 -243.5t-185 -178.5t-255.5 -66q-175 0 -296 113t-145 313h147q16 -105 51.5 -159.5t104 -89.5t143.5 -35q135 0 243.5 104.5t108.5 232.5q0 83 -64.5 188.5
t-308.5 105.5l16 130l38 -1q158 0 255.5 78.5t97.5 182.5t-71 171t-171 67t-169.5 -57t-85.5 -152h-149q23 158 138 255.5t277 97.5z" />
    <glyph glyph-name="four" unicode="4" horiz-adv-x="1135" 
d="M691 1043l-448 -585h369zM893 1508l-140 -1050h206l-19 -146h-205l-41 -312h-142l41 312h-645l914 1196h31z" />
    <glyph glyph-name="five" unicode="5" horiz-adv-x="1135" 
d="M534 976q107 0 204 -61t154.5 -171.5t57.5 -249.5t-70 -267.5t-183.5 -196t-258.5 -67.5q-302 0 -449 321l136 59q51 -118 136 -178t185 -60q134 0 244 106.5t110 273.5t-89 263t-212 96t-248 -51l204 678h595l-19 -145h-472l-104 -355q49 5 79 5z" />
    <glyph glyph-name="six" unicode="6" horiz-adv-x="1135" 
d="M514 842q-143 0 -246 -111t-103 -268t95.5 -256.5t231.5 -99.5t248.5 103.5t112.5 265.5t-98 264t-241 102zM549 975q169 0 298 -121q152 -142 152 -366t-145 -374.5t-353 -150.5t-344.5 138t-136.5 343q0 133 57 257t244 344l392 463l105 -86l-395 -469q70 22 126 22z
" />
    <glyph glyph-name="seven" unicode="7" horiz-adv-x="1135" 
d="M177 1471h932l-954 -1508l-116 73l819 1296h-703z" />
    <glyph glyph-name="eight" unicode="8" horiz-adv-x="1135" 
d="M528 727q-139 0 -256 -98t-117 -256q0 -119 84.5 -196.5t202.5 -77.5t206 45.5t137 126.5t49 167q0 122 -83.5 205.5t-222.5 83.5zM606 1364q-115 0 -204 -81t-89 -183t68.5 -164.5t186.5 -62.5t203 81.5t85 181.5t-67.5 164t-182.5 64zM975 446q0 -129 -67.5 -242
t-187.5 -177t-267 -64q-193 0 -320 120t-127 287q0 292 329 443q-92 62 -130.5 129.5t-38.5 148.5q0 165 135 291t311 126t284.5 -104.5t108.5 -252.5q0 -226 -259 -357q229 -118 229 -348z" />
    <glyph glyph-name="nine" unicode="9" horiz-adv-x="1135" 
d="M551 629q143 0 246 110.5t103 267.5t-96 257t-232 100t-248 -104t-112 -266t98 -263.5t241 -101.5zM516 495q-169 0 -299 122q-151 141 -151 365t145 375t353 151t344.5 -138.5t136.5 -343.5q0 -133 -57.5 -256.5t-243.5 -343.5l-393 -463l-105 86l395 468
q-69 -22 -125 -22z" />
    <glyph glyph-name="colon" unicode=":" horiz-adv-x="567" 
d="M182 216q51 0 86.5 -36t35.5 -86t-35.5 -86t-86.5 -36t-86.5 36t-35.5 86t35.5 86t86.5 36zM306 1116q50 0 85.5 -36t35.5 -86t-35.5 -86t-86.5 -36t-86.5 36t-35.5 86t36.5 86t86.5 36z" />
    <glyph glyph-name="semicolon" unicode=";" horiz-adv-x="567" 
d="M187 270l127 -64l-256 -376l-94 41zM306 1116q51 0 86.5 -36t35.5 -86t-35.5 -86t-86.5 -36t-86.5 36t-35.5 86t35.5 86t86.5 36z" />
    <glyph glyph-name="semicolon" unicode="&#x37e;" horiz-adv-x="567" 
d="M187 270l127 -64l-256 -376l-94 41zM306 1116q51 0 86.5 -36t35.5 -86t-35.5 -86t-86.5 -36t-86.5 36t-35.5 86t35.5 86t86.5 36z" />
    <glyph glyph-name="less" unicode="&#x3c;" horiz-adv-x="1241" 
d="M1137 347v-146l-1033 469v130l1033 471v-147l-839 -390z" />
    <glyph glyph-name="equal" unicode="=" horiz-adv-x="1241" 
d="M1127 584v-137h-1012v137h1012zM1127 1024v-137h-1012v137h1012z" />
    <glyph glyph-name="greater" unicode="&#x3e;" horiz-adv-x="1241" 
d="M104 347l839 387l-839 390v147l1033 -471v-130l-1033 -469v146z" />
    <glyph glyph-name="question" unicode="?" horiz-adv-x="1210" 
d="M504 216q50 0 86.5 -36t36.5 -86t-35.5 -86t-86.5 -36t-86.5 36t-35.5 86t35.5 86t85.5 36zM562 478q208 0 248 219h136q-15 -168 -115.5 -260t-256.5 -92t-242.5 78t-86.5 189q1 112 77 190t362 181q140 51 193 97t53 132q0 87 -65 138t-191 51q-283 0 -321 -301h-136
q23 215 150 325.5t309 110.5t287 -91t105 -225q0 -195 -187 -300q-44 -25 -217 -85q-174 -59 -230 -115t-56 -110t51 -93t133 -39z" />
    <glyph glyph-name="at" unicode="@" horiz-adv-x="1776" 
d="M838 428q148 0 221 179q39 95 39 201t-56.5 169t-146.5 63q-120 0 -207.5 -98.5t-87.5 -233.5t66.5 -207.5t171.5 -72.5zM927 -27q-213 0 -398 103.5t-288.5 282.5t-103.5 393t104.5 398.5t284.5 287t394 102.5q302 0 510 -193.5t208 -450.5q0 -187 -86.5 -322.5
t-234.5 -210.5q-113 -58 -182 -58t-99 27t-31 84q-34 -43 -93.5 -72t-123.5 -29q-144 0 -238 99.5t-94 269.5t114 316.5t314 146.5q88 0 147.5 -33t112.5 -115l26 138h108l-116 -654q-5 -32 -5 -48t14 -29t36 -13q59 0 153.5 68.5t147 176t52.5 238.5q0 254 -190 415
t-455 161q-196 0 -355.5 -89.5t-252 -252t-92.5 -352.5t93 -351.5t257.5 -253.5t336.5 -92t289.5 52t252.5 188h106q-134 -167 -248 -234q-162 -94 -375 -94z" />
    <glyph glyph-name="A" unicode="A" horiz-adv-x="1515" 
d="M805 1163l-314 -542h496zM852 1471l493 -1471h-151l-161 481h-623l-275 -481h-164l847 1471h34z" />
    <glyph glyph-name="B" unicode="B" horiz-adv-x="1176" 
d="M414 139q208 0 302 21t150.5 86.5t56.5 163.5t-46 159t-151 95.5t-314 34.5h-123l-74 -560h199zM407 839q200 0 288.5 32t137.5 100.5t49 164.5t-76.5 147t-325.5 51q-43 0 -107 -3l-66 -488q43 -4 100 -4zM435 1471q278 0 376 -33.5t158.5 -116.5t60.5 -199t-64 -208.5
t-172 -133.5q130 -40 204 -136t74 -230t-63.5 -231t-170.5 -140t-369 -43h-419l196 1471h189z" />
    <glyph glyph-name="C" unicode="C" horiz-adv-x="1665" 
d="M954 1365q-195 0 -364.5 -95t-265 -256t-95.5 -336t73.5 -303t212.5 -200.5t318 -72.5q273 0 509 173l82 -117q-175 -115 -301 -155t-291 -40q-305 0 -497 153q-255 204 -255 552t255 594t634 246q173 0 315 -54.5t292 -185.5l-89 -123q-234 220 -533 220z" />
    <glyph glyph-name="D" unicode="D" horiz-adv-x="1524" 
d="M340 143q298 0 420 20t223.5 90.5t173.5 211.5t72 311t-81.5 301t-213.5 191t-419 61h-147l-157 -1186h129zM557 1471q300 0 460 -78.5t258 -243t98 -382.5t-110.5 -409t-272 -274.5t-481.5 -83.5h-463l195 1471h316z" />
    <glyph glyph-name="E" unicode="E" horiz-adv-x="1098" 
d="M1056 1471l-21 -143h-662l-65 -482h662l-19 -141h-662l-75 -564h662l-17 -141h-811l197 1471h811z" />
    <glyph glyph-name="F" unicode="F" horiz-adv-x="993" 
d="M955 1471l-18 -144h-565l-65 -481h565l-18 -141h-565l-97 -705h-145l198 1471h710z" />
    <glyph glyph-name="G" unicode="G" horiz-adv-x="1786" 
d="M902 1368q-166 0 -328 -94.5t-254.5 -251t-92.5 -335.5q0 -243 173.5 -413.5t422.5 -170.5q149 0 352.5 90.5t279.5 382.5h-539v145h716q-22 -338 -242 -548t-554 -210t-545 205t-211 515q0 221 111 412.5t305.5 302t419.5 110.5q407 0 681 -353l-118 -87
q-111 145 -261 222.5t-316 77.5z" />
    <glyph glyph-name="H" unicode="H" horiz-adv-x="1399" 
d="M245 1471h145l-79 -598h753l80 598h143l-193 -1471h-144l97 734h-757l-96 -734h-146z" />
    <glyph glyph-name="I" unicode="I" horiz-adv-x="463" 
d="M238 1471h148l-199 -1471h-148z" />
    <glyph glyph-name="J" unicode="J" horiz-adv-x="987" 
d="M333 -37q-97 0 -183 40.5t-175 136.5l113 80q125 -121 244 -121q90 0 145 82q42 62 69 265l134 1025h145l-133 -1014q-30 -229 -69.5 -314.5t-116 -132.5t-173.5 -47z" />
    <glyph glyph-name="K" unicode="K" horiz-adv-x="1210" 
d="M243 1471h145l-79 -597l689 597h211l-797 -688l690 -783h-188l-625 710l-98 -710h-144z" />
    <glyph glyph-name="L" unicode="L" horiz-adv-x="946" 
d="M246 1471h148l-177 -1333h636l-17 -138h-784z" />
    <glyph glyph-name="M" unicode="M" horiz-adv-x="1882" 
d="M1642 1471v-1471h-138v1014l-638 -1014h-37l-381 1050l-302 -1050h-149l425 1471h24l430 -1195l743 1195h23z" />
    <glyph glyph-name="N" unicode="N" horiz-adv-x="1515" 
d="M1265 1471h144l-199 -1471h-32l-828 1140l-154 -1140h-146l198 1471h32l830 -1142z" />
    <glyph glyph-name="O" unicode="O" horiz-adv-x="1780" 
d="M954 1369q-212 0 -377.5 -92t-262 -261.5t-96.5 -345.5t70 -304.5t194 -196.5t306 -68t351 95.5t265.5 265t96.5 366.5q0 261 -183 414q-152 127 -364 127zM956 1508q297 0 494.5 -195t197.5 -493q0 -363 -250.5 -610t-624.5 -247q-318 0 -509 190t-191 497
q0 237 114.5 435t317 310.5t451.5 112.5z" />
    <glyph glyph-name="P" unicode="P" horiz-adv-x="1212" 
d="M529 840q207 0 286.5 28.5t128 98t48.5 147.5t-33 126.5t-91 68.5t-213 20h-263l-68 -489h205zM663 1471q199 0 285.5 -37t138.5 -118.5t52 -209.5t-82 -235.5t-207 -146.5q-91 -29 -321 -29h-223l-94 -695h-147l197 1471h401z" />
    <glyph glyph-name="Q" unicode="Q" horiz-adv-x="1784" 
d="M1503 828q0 238 -156 389.5t-407 151.5q-197 0 -363.5 -94t-261.5 -261.5t-95 -343.5t70 -304.5t193.5 -196.5t289.5 -68q230 0 420 127l-247 261h189l163 -174q97 100 151 234.5t54 278.5zM764 -37q-306 0 -497.5 190t-191.5 497q0 236 113.5 433.5t316 311t441.5 113.5
q307 0 505.5 -194.5t198.5 -493.5q0 -360 -251 -611l252 -268h-187l-170 180q-224 -158 -530 -158z" />
    <glyph glyph-name="R" unicode="R" horiz-adv-x="1243" 
d="M510 840q188 0 246 15q97 24 156.5 94.5t59.5 178.5t-83 161q-64 41 -230 41h-252l-66 -490h169zM647 1471q197 0 282 -37.5t138 -120t53 -196.5t-62.5 -216t-170.5 -153.5t-284 -51.5l444 -696h-167l-443 696h-116l-95 -696h-148l200 1471h369z" />
    <glyph glyph-name="S" unicode="S" horiz-adv-x="1020" 
d="M554 1365q-78 0 -129.5 -55.5t-51.5 -143.5q1 -88 45 -160t176 -192q240 -217 240 -432q0 -107 -58.5 -206t-157.5 -156t-225 -57t-229.5 90t-148.5 264l136 46q32 -132 104.5 -196t172.5 -64t177 79.5t77 179.5t-43 181t-175 200t-173 185q-67 110 -67 246t99 235
t233 99t230 -78t141 -231l-139 -35q-28 93 -92 147t-142 54z" />
    <glyph glyph-name="T" unicode="T" horiz-adv-x="872" 
d="M73 1471h879l-19 -140h-375l-177 -1331h-147l177 1331h-357z" />
    <glyph glyph-name="U" unicode="U" horiz-adv-x="1341" 
d="M245 390q0 -138 79 -212.5t223 -74.5q200 0 282.5 99.5t114.5 215.5t61 342l92 711h145l-122 -925q-41 -251 -154.5 -417t-415.5 -166q-217 0 -335 110t-118 292q0 51 6 114l130 992h145l-111 -842q-22 -168 -22 -239z" />
    <glyph glyph-name="V" unicode="V" horiz-adv-x="1438" 
d="M122 1471h148l365 -1165l683 1165h163l-862 -1471h-34z" />
    <glyph glyph-name="W" unicode="W" horiz-adv-x="1966" 
d="M126 1471h143l204 -1093l569 1093h28l257 -1093l520 1093h155l-702 -1471h-27l-259 1108l-586 -1108h-27z" />
    <glyph glyph-name="X" unicode="X" horiz-adv-x="1247" 
d="M217 1471h156l260 -572l433 572h172l-540 -713l348 -758h-155l-288 627l-476 -627h-173l584 771z" />
    <glyph glyph-name="Y" unicode="Y" horiz-adv-x="1212" 
d="M83 1471h154l315 -668l531 668h178l-652 -819l-89 -652h-144l89 660z" />
    <glyph glyph-name="Z" unicode="Z" horiz-adv-x="983" 
d="M217 1471h756l-722 -1331h551l-19 -140h-770l725 1329h-540z" />
    <glyph glyph-name="bracketleft" unicode="[" horiz-adv-x="719" 
d="M370 1508h336l-20 -142h-196l-228 -1627h195l-19 -137h-336z" />
    <glyph glyph-name="backslash" unicode="\" horiz-adv-x="1239" 
d="M220 1508l952 -1708h-153l-953 1708h154z" />
    <glyph glyph-name="bracketright" unicode="]" horiz-adv-x="719" 
d="M240 -398h-336l20 142h195l229 1627h-195l19 137h336z" />
    <glyph glyph-name="asciicircum" unicode="^" horiz-adv-x="1376" 
d="M629 1471h118l510 -1106h-133l-439 952l-436 -952h-129z" />
    <glyph glyph-name="underscore" unicode="_" horiz-adv-x="1024" 
d="M-12 -154h1048v-102h-1048v102z" />
    <glyph glyph-name="grave" unicode="`" horiz-adv-x="774" 
d="M430 1598l175 -308h-138l-252 308h215z" />
    <glyph glyph-name="a" unicode="a" horiz-adv-x="1399" 
d="M565 100q153 0 264 63.5t176 183t65 273.5t-107 260t-293 106t-329 -145t-143 -356q0 -173 107 -279t260 -106zM693 1116q262 0 403 -235l25 207h145l-145 -1088h-141l21 164q-189 -192 -422 -192t-376 143t-143 368q0 260 185.5 446.5t447.5 186.5z" />
    <glyph glyph-name="b" unicode="b" horiz-adv-x="1397" 
d="M742 988q-134 0 -245.5 -63.5t-176.5 -183t-65 -273.5t107.5 -260t293.5 -106t328.5 145t142.5 356q0 173 -106.5 279t-278.5 106zM633 -28q-262 0 -404 236l-25 -208h-145l201 1508h142l-77 -583q189 191 422 191t375.5 -143t142.5 -368q0 -260 -185 -446.5t-447 -186.5
z" />
    <glyph glyph-name="c" unicode="c" horiz-adv-x="1325" 
d="M713 982q-144 0 -263 -64t-186 -178t-67 -236t77 -262.5t327 -140.5q126 0 240.5 50t178.5 129l115 -81q-108 -118 -234.5 -172.5t-293.5 -54.5q-258 0 -402.5 140.5t-144.5 387.5t189.5 431.5t464.5 184.5q165 0 291 -69.5t193 -193.5l-115 -67q-121 196 -370 196z" />
    <glyph glyph-name="d" unicode="d" horiz-adv-x="1403" 
d="M567 100q153 0 264 63.5t176 183t65 273.5t-107 260t-293 106t-329 -145t-143 -356q0 -173 107 -279t260 -106zM695 1116q262 0 403 -235l81 627h145l-201 -1508h-141l21 164q-189 -192 -422 -192t-376 143t-143 368q0 260 185.5 446.5t447.5 186.5z" />
    <glyph glyph-name="e" unicode="e" horiz-adv-x="1331" 
d="M678 982q-156 0 -281 -92t-177 -253h818q-6 154 -105 249.5t-255 95.5zM574 100q115 0 213 47t162 132l104 -85q-79 -101 -206.5 -161.5t-275.5 -60.5q-256 0 -384.5 158.5t-128.5 338.5t86.5 330t231.5 233.5t314 83.5q209 0 346 -141.5t137 -360.5q0 -40 -7 -98h-970
q-3 -194 101 -305t277 -111z" />
    <glyph glyph-name="f" unicode="f" horiz-adv-x="643" 
d="M518 1411q-54 0 -84 -41t-47 -166l-17 -116h224l-15 -123h-224l-136 -965h-137l137 965h-137l15 123h138l13 96q24 169 51 226t80 91.5t127 34.5t160 -65l-19 -132q-75 72 -129 72z" />
    <glyph glyph-name="g" unicode="g" horiz-adv-x="1378" 
d="M696 983q-136 0 -253 -65.5t-181.5 -177.5t-64.5 -262t102 -247.5t292 -97.5t327.5 136.5t137.5 330.5t-112 288.5t-248 94.5zM671 1116q259 0 415 -235l27 207h137l-125 -921q-30 -223 -73 -312q-59 -123 -195.5 -202t-322.5 -79q-374 0 -512 292l125 45
q114 -207 385 -207q143 0 247.5 58t149.5 149q27 55 55 239l6 43q-176 -193 -416 -193t-377 137.5t-137 357.5q0 162 83.5 304.5t230 229.5t297.5 87z" />
    <glyph glyph-name="h" unicode="h" horiz-adv-x="1249" 
d="M688 1116q165 0 269.5 -103t104.5 -268q0 -91 -22 -245l-68 -500h-138l68 500q21 152 21 252t-70 169t-180 69t-204.5 -57t-146 -154t-80.5 -308l-65 -471h-136l207 1508h136l-80 -585q168 193 384 193z" />
    <glyph glyph-name="i" unicode="i" horiz-adv-x="410" 
d="M164 1088h133l-145 -1088h-138zM274 1536q46 0 79 -33t33 -79t-33 -79t-79 -33t-79 33t-33 79t33 79t79 33z" />
    <glyph glyph-name="j" unicode="j" horiz-adv-x="416" 
d="M-76 -426q-53 0 -121 28l17 119q36 -22 74 -22q82 0 109 188l167 1201h137l-159 -1158q-30 -215 -84.5 -285.5t-139.5 -70.5zM280 1536q46 0 79.5 -33t33.5 -79t-33.5 -79t-79.5 -33t-79 33t-33 79t33 79t79 33z" />
    <glyph glyph-name="k" unicode="k" horiz-adv-x="1028" 
d="M252 1508h136l-115 -823l524 403h218l-632 -486l557 -602h-186l-502 540l-73 -540h-140z" />
    <glyph glyph-name="l" unicode="l" horiz-adv-x="410" 
d="M225 1508h137l-210 -1508h-138z" />
    <glyph glyph-name="m" unicode="m" horiz-adv-x="1921" 
d="M676 1116q111 0 195 -65t120 -178q74 116 182.5 179.5t220.5 63.5q151 0 248 -97t97 -251q0 -70 -13 -171l-81 -597h-136l73 522q23 164 23 250t-62.5 147.5t-167.5 61.5t-198 -67.5t-132 -159.5t-59 -232l-74 -522h-139l82 597q14 95 14 156q0 105 -62 168t-154 63
t-169 -39.5t-140.5 -122.5t-96.5 -310l-72 -512h-139l155 1088h137l-22 -154q63 85 161 133.5t209 48.5z" />
    <glyph glyph-name="n" unicode="n" horiz-adv-x="1249" 
d="M689 1116q168 0 271 -103.5t103 -278.5q0 -70 -22 -235l-68 -499h-138l67 499q22 160 22 236q0 114 -69 184t-180 70t-205.5 -56.5t-146.5 -154t-80 -308.5l-65 -470h-137l151 1088h134l-21 -167q165 195 384 195z" />
    <glyph glyph-name="o" unicode="o" horiz-adv-x="1341" 
d="M663 983q-116 0 -230.5 -65t-176 -178.5t-61.5 -267.5t106 -262t274 -108q131 0 237.5 62.5t169.5 180.5t63 242t-47 211.5t-133 136t-202 48.5zM665 1116q154 0 270 -66.5t181 -185t65 -278.5t-83 -307t-223 -227t-317 -80q-219 0 -360.5 143.5t-141.5 365.5
q0 174 83 321t227.5 230.5t298.5 83.5z" />
    <glyph glyph-name="p" unicode="p" horiz-adv-x="1397" 
d="M742 988q-134 0 -245.5 -63.5t-176.5 -183t-65 -273.5t107.5 -260t293.5 -106t328.5 145t142.5 356q0 173 -106.5 279t-278.5 106zM633 -28q-262 0 -403 236l-79 -606h-145l198 1486h142l-21 -163q189 191 422 191t375.5 -143t142.5 -368q0 -260 -185 -446.5t-447 -186.5
z" />
    <glyph glyph-name="q" unicode="q" horiz-adv-x="1397" 
d="M564 100q153 0 264 63.5t176 183t65 273.5t-107 260t-293 106t-329 -145t-143 -356q0 -173 107 -279t260 -106zM692 1116q262 0 403 -235l25 207h145l-198 -1486h-142l75 562q-189 -192 -422 -192t-376 143t-143 368q0 260 185.5 446.5t447.5 186.5z" />
    <glyph glyph-name="r" unicode="r" horiz-adv-x="616" 
d="M539 1116q71 0 135 -28l-66 -128q-52 21 -87 21q-73 0 -144.5 -51t-116 -148.5t-75.5 -320.5l-64 -461h-136l148 1088h139l-18 -137q56 78 135 121.5t150 43.5z" />
    <glyph glyph-name="s" unicode="s" horiz-adv-x="795" 
d="M400 984q-72 0 -123 -47t-51 -97t30 -91q30 -40 162 -125t182 -160q49 -76 49 -175q0 -137 -95.5 -227t-248.5 -90q-202 0 -340 179l85 99q121 -147 263 -147q81 0 141 57t60 125t-37 114t-169 136q-132 89 -175 151t-43 139q0 121 91 206t230 85q82 0 148.5 -33
t134.5 -117l-76 -113q-92 131 -218 131z" />
    <glyph glyph-name="t" unicode="t" horiz-adv-x="694" 
d="M363 1495h137l-54 -407h216l-16 -122h-216l-132 -966h-140l131 966h-187l17 122h186z" />
    <glyph glyph-name="u" unicode="u" horiz-adv-x="1245" 
d="M239 385q0 -125 83.5 -204t209.5 -79t209.5 60t119.5 157q18 49 43 225l78 544h137l-56 -412q-40 -295 -85 -419.5t-160.5 -204.5t-293.5 -80t-298 115.5t-120 288.5q0 69 11 161l10 96l61 455h140l-63 -455q-26 -193 -26 -248z" />
    <glyph glyph-name="v" unicode="v" horiz-adv-x="1135" 
d="M56 1088h143l275 -796l458 796h152l-627 -1088h-26z" />
    <glyph glyph-name="w" unicode="w" horiz-adv-x="1702" 
d="M70 1088h139l224 -768l409 768h24l248 -776l400 776h150l-562 -1088h-28l-252 768l-409 -768h-26z" />
    <glyph glyph-name="x" unicode="x" horiz-adv-x="983" 
d="M36 1088h158l265 -425l311 425h168l-403 -548l329 -540h-159l-258 418l-307 -418h-168l399 540z" />
    <glyph glyph-name="y" unicode="y" horiz-adv-x="1098" 
d="M47 1088h144l282 -803l466 803h155l-862 -1486h-157l308 531z" />
    <glyph glyph-name="z" unicode="z" horiz-adv-x="870" 
d="M92 1088h748l-650 -964h591l-16 -124h-822l653 965h-520z" />
    <glyph glyph-name="braceleft" unicode="{" horiz-adv-x="719" 
d="M217 510q161 -72 161 -258q0 -90 -22 -244q-22 -152 -21 -203q0 -51 30 -75t120 -24h31l-22 -157h-55q-93 0 -146 17t-90.5 73.5t-37.5 132.5q1 76 23 241q22 166 22 223q0 188 -171 192l23 163q127 4 174 80.5t60 144.5t37.5 232.5t67.5 268.5t179 142q42 12 129 12h55
l-22 -157h-31q-84 0 -118 -19.5t-52.5 -61t-44.5 -225.5t-56.5 -269t-79 -136t-143.5 -93z" />
    <glyph glyph-name="bar" unicode="|" horiz-adv-x="1376" 
d="M616 1508h143v-1906h-143v1906z" />
    <glyph glyph-name="braceright" unicode="}" horiz-adv-x="719" 
d="M380 510q-160 72 -160 258q0 90 22 243t21 203q0 50 -30.5 75t-120.5 25h-31l22 157h56q93 1 145 -17t90 -74t38 -132t-22 -242t-23 -222q0 -189 171 -193l-23 -163q-124 -2 -172 -79t-61 -145t-38 -232.5t-67.5 -269t-179.5 -142.5q-41 -11 -128 -11h-56l22 157h31
q84 0 118.5 19t52.5 60.5t44 225.5t57 269t79.5 136t142.5 94z" />
    <glyph glyph-name="asciitilde" unicode="~" horiz-adv-x="1241" 
d="M876 579q-95 1 -246 69t-187.5 79.5t-74.5 11.5t-91 -19t-165 -86v160q110 62 159 79t95 17q98 0 242 -68t188 -82t82 -14t81 16.5t169 94.5v-162q-112 -63 -160.5 -79.5t-91.5 -16.5z" />
    <glyph glyph-name="nbspace" unicode="&#xa0;" horiz-adv-x="573" 
 />
    <glyph glyph-name="exclamdown" unicode="&#xa1;" horiz-adv-x="604" 
d="M197 -426h-138l150 1141h140zM308 867q-50 0 -86 35.5t-36 85.5t36 86t86 36t86.5 -36t36.5 -86t-36.5 -85.5t-86.5 -35.5z" />
    <glyph glyph-name="cent" unicode="&#xa2;" horiz-adv-x="1135" 
d="M668 982q-123 0 -237 -68t-181 -186t-67 -262t96 -254l489 752q-57 18 -100 18zM544 106q200 0 359 141l78 -109q-189 -166 -449 -166q-121 0 -226 51l-198 -307l-109 69l204 310q-84 90 -121 180t-37 199q0 167 85 317t231.5 237.5t299.5 87.5q84 0 186 -34l175 270
l103 -68l-168 -260q50 -33 93 -74l-86 -110q-38 35 -82 68l-500 -770q80 -32 162 -32z" />
    <glyph glyph-name="sterling" unicode="&#xa3;" horiz-adv-x="1135" 
d="M218 248q-42 0 -69 -23t-27 -55t18.5 -51t46.5 -19q65 0 130 111q-57 37 -99 37zM351 1107q0 183 110.5 292t272.5 109t251 -92.5t89 -256.5l-1 -35h-144q-5 135 -51 188.5t-144 53.5t-167 -67.5t-69 -167.5t35 -287h318l-18 -137h-284q3 -64 3 -111q0 -193 -55 -338
q152 -112 182 -128t62 -16q53 0 92 63t52 166h146q-12 -148 -91.5 -264t-202.5 -116q-63 1 -135 35t-172 124q-114 -159 -253 -159q-85 0 -138 53.5t-53 141.5t68 157t156 69t162 -41q32 113 32 198l-7 166h-288l19 137h254q-31 205 -31 263z" />
    <glyph glyph-name="currency" unicode="&#xa4;" horiz-adv-x="1135" 
d="M193 613q0 -155 110.5 -264t266.5 -109t265.5 110t109.5 265t-109.5 264.5t-265.5 109.5t-266.5 -110.5t-110.5 -265.5zM50 617q0 87 24 159t87 149l-120 117l90 91l120 -119q144 112 315 112q170 0 318 -106l117 113l88 -91l-116 -112q64 -79 89.5 -153t25.5 -162
q0 -167 -109 -309l116 -114l-89 -90l-116 115q-147 -115 -319 -115q-173 0 -323 115l-117 -115l-89 90l116 114q-61 82 -84.5 153.5t-23.5 157.5z" />
    <glyph glyph-name="yen" unicode="&#xa5;" horiz-adv-x="1135" 
d="M145 1471h153l253 -603l411 603h168l-516 -766h367l-18 -115h-366l-22 -155h366l-17 -117h-367l-44 -318h-145l45 318h-368l16 117h369l21 155h-368l15 115h368z" />
    <glyph glyph-name="brokenbar" unicode="&#xa6;" horiz-adv-x="1376" 
d="M616 -398v957l143 54v-1011h-143zM616 1508h143v-767l-143 -55v822z" />
    <glyph glyph-name="section" unicode="&#xa7;" horiz-adv-x="1259" 
d="M768.5 390.5q81.5 72.5 81.5 152.5t-91 151l-206 145q-126 -18 -199 -86t-73 -157t119 -183l153 -107q134 12 215.5 84.5zM305 1178q0 149 111 253.5t272 104.5t256 -92t101 -249h-139q-26 200 -207 200q-111 0 -182.5 -63.5t-71.5 -137.5t58.5 -137t216.5 -163t216 -180
t58 -154t-62 -183t-277 -153q106 -85 145 -155.5t39 -152.5t-51 -164t-147 -130t-231 -48t-227.5 73.5t-117.5 213.5h141q27 -80 82.5 -117t157.5 -37t175.5 62t73.5 136t-47 132q-47 57 -228 185t-228.5 200.5t-47.5 173.5t81.5 191.5t227.5 124.5q-148 117 -148 266z" />
    <glyph glyph-name="dieresis" unicode="&#xa8;" horiz-adv-x="756" 
d="M682 1518q48 0 77 -29t29 -76t-40.5 -87t-88.5 -40t-76.5 28t-28.5 76t40 88t88 40zM274 1518q48 0 77 -29t29 -76t-40.5 -87t-88.5 -40t-76.5 28t-28.5 76t40 88t88 40z" />
    <glyph glyph-name="copyright" unicode="&#xa9;" horiz-adv-x="1530" 
d="M779 1102q-127 0 -204 -89.5t-77 -259.5t74 -258t184 -88q222 0 258 246h136q-19 -164 -124 -261t-256 -97q-189 0 -302 121.5t-113 341.5t117.5 346.5t291.5 126.5t274 -83.5t112 -223.5h-136q-42 178 -235 178zM1442 757q0 182 -90.5 338.5t-247 247.5t-338.5 91
t-339 -91t-247.5 -248t-90.5 -339t90.5 -338.5t248 -247t338.5 -90.5t338 90.5t247.5 247.5t90.5 339zM1551 756q0 -210 -105 -391t-287.5 -286.5t-392.5 -105.5t-393 105.5t-288 287t-105 391.5t105 391.5t288 286.5t393 105t392.5 -105t287.5 -287t105 -392z" />
    <glyph glyph-name="ordfeminine" unicode="&#xaa;" horiz-adv-x="756" 
d="M363 899q82 0 145.5 78.5t63.5 194.5t-49 173t-128 57t-145.5 -80t-66.5 -194t49 -171.5t131 -57.5zM325 794q-108 0 -182 87t-74 245t95.5 270t216.5 112q52 0 97.5 -23.5t115.5 -97.5l13 104h119l-98 -681h-116l11 80q-57 -56 -102 -76t-96 -20z" />
    <glyph glyph-name="guillemotleft" unicode="&#xab;" horiz-adv-x="870" 
d="M752 1088h152l-302 -550l142 -538h-136l-149 557zM292 1088h152l-302 -550l142 -538h-136l-149 557z" />
    <glyph glyph-name="logicalnot" unicode="&#xac;" horiz-adv-x="1241" 
d="M1127 1024v-577h-137l-1 440h-874v137h1012z" />
    <glyph glyph-name="registered" unicode="&#xae;" horiz-adv-x="1530" 
d="M582 1087v-268h222q101 0 137 23q53 33 53 107t-38 106t-143 32h-231zM439 1217h377q132 0 190 -26.5t94.5 -86.5t36.5 -134t-23 -118t-90 -88q61 -30 82 -69.5t21 -135.5v-102q0 -72 32 -120l15 -24h-160q-15 56 -21 133l-7 111q-4 61 -19.5 86t-44 36t-113.5 11h-227
v-377h-143v904zM1442 758q0 182 -91 340t-247 249t-336 91t-339 -91t-249.5 -249t-90.5 -340t90.5 -339t249.5 -248t339 -91t336.5 91.5t247 248t90.5 338.5zM1551 758q0 -210 -105 -391.5t-288 -287.5t-392 -106t-392 105.5t-288.5 287.5t-105.5 391t105.5 393t288 289
t392.5 105t391.5 -104.5t287.5 -288t106 -393.5z" />
    <glyph glyph-name="overscore" unicode="&#xaf;" horiz-adv-x="1024" 
d="M72 1685h1048v-102h-1048v102z" />
    <glyph glyph-name="degree" unicode="&#xb0;" horiz-adv-x="819" 
d="M678 1164q0 100 -65 169t-159 69t-161 -69.5t-67 -167.5t68 -168.5t160 -70.5t158 69t66 169zM797 1164q0 -144 -101 -244t-245 -100t-244 100t-100 244t102.5 244t244.5 100t242.5 -100t100.5 -244z" />
    <glyph glyph-name="plusminus" unicode="&#xb1;" horiz-adv-x="1124" 
d="M1068 161v-137h-1012v137h1012zM493 913v434h137v-434h438v-137h-438v-434h-137v434h-437v137h437z" />
    <glyph glyph-name="twosuperior" unicode="&#xb2;" horiz-adv-x="680" 
d="M412 1508q120 0 187 -59.5t67 -131.5t-33.5 -128t-180.5 -192l-176 -164h352l-15 -100h-596l311 291q164 153 195 198.5t31 85.5t-40 72t-108 32t-111 -43.5t-47 -127.5h-112q7 128 81.5 197.5t194.5 69.5z" />
    <glyph glyph-name="threesuperior" unicode="&#xb3;" horiz-adv-x="680" 
d="M526 965q0 133 -222 133l13 93l31 -1q92 0 145 36t53 80t-37.5 73.5t-94.5 29.5t-94 -27.5t-46 -76.5h-112q19 124 104.5 163.5t172.5 39.5t152.5 -58t65.5 -145q0 -54 -27 -93.5t-95 -72.5q59 -41 81 -80t22 -88q0 -104 -88 -180t-212 -76t-197.5 63t-87.5 176h111
q21 -141 167 -141q77 0 136 49.5t59 102.5z" />
    <glyph glyph-name="acute" unicode="&#xb4;" horiz-adv-x="768" 
d="M581 1598h215l-339 -308h-138z" />
    <glyph glyph-name="mu1" unicode="&#xb5;" horiz-adv-x="1180" 
d="M228 384q0 -115 75 -186t183 -71t192.5 59t116.5 129t52 216l78 557h140l-150 -1088h-140l16 118q-135 -143 -323 -143t-282 140l-70 -513h-140l204 1486h140l-81 -574q-11 -82 -11 -130z" />
    <glyph glyph-name="paragraph" unicode="&#xb6;" horiz-adv-x="1155" 
d="M483 -231v937q-75 0 -132 12t-120 63t-100 135.5t-37 188.5q0 189 116 308q97 100 299 100h513v-75h-84v-1669h-119v1669h-217v-1669h-119z" />
    <glyph glyph-name="middot" unicode="&#xb7;" horiz-adv-x="682" 
d="M595 870q48 0 77 -28t29 -76t-40.5 -88t-88.5 -40t-76.5 29t-28.5 76t40 87t88 40z" />
    <glyph glyph-name="cedilla" unicode="&#xb8;" horiz-adv-x="664" 
d="M286 -115q30 0 58 -26t28 -65q0 -70 -68 -122t-170 -52t-177 30l31 69q62 -20 129 -20t100 20.5t33 42.5q0 45 -56 45q-24 0 -72 -9l56 202h88l-34 -118q24 3 54 3z" />
    <glyph glyph-name="onesuperior" unicode="&#xb9;" horiz-adv-x="680" 
d="M295 1489h203l-120 -756h-109l104 658h-122z" />
    <glyph glyph-name="ordmasculine" unicode="&#xba;" horiz-adv-x="756" 
d="M423 1401q-68 0 -123.5 -35.5t-87 -101.5t-31.5 -156t52 -149.5t143 -59.5t154 83.5t63 192.5t-51 167.5t-119 58.5zM408 1508q132 0 214.5 -90t82.5 -248t-101.5 -267t-237.5 -109t-217.5 88.5t-81.5 244.5t104.5 268.5t236.5 112.5z" />
    <glyph glyph-name="guillemotright" unicode="&#xbb;" horiz-adv-x="870" 
d="M73 0h-152l302 550l-141 538h135l149 -557zM533 0h-152l302 550l-141 538h135l149 -557z" />
    <glyph glyph-name="onequarter" unicode="&#xbc;" horiz-adv-x="1702" 
d="M224 1489h203l-120 -756h-109l104 658h-122zM227 -37l932 1545h112l-933 -1545h-111zM1332 472l-213 -226h177zM1490 790l-87 -544h122l-16 -100h-121l-24 -155h-108l24 155h-397z" />
    <glyph glyph-name="onehalf" unicode="&#xbd;" horiz-adv-x="1702" 
d="M224 1489h203l-120 -756h-109l104 658h-122zM204 -37l932 1545h112l-933 -1545h-111zM1282 775q120 1 186 -59q68 -60 68 -132t-34 -128t-180 -192l-176 -164h352l-15 -100h-596l311 291q164 153 195 198t31 85t-40 73q-40 32 -108 32q-68 1 -111 -43t-47 -128h-112
q8 128 82 198t194 69z" />
    <glyph glyph-name="threequarters" unicode="&#xbe;" horiz-adv-x="1702" 
d="M509 965q0 133 -222 133l13 93l31 -1q92 0 145 36t53 80q1 44 -37 73q-38 30 -95 30q-57 1 -94 -27t-46 -77h-112q19 124 131 176q58 27 146 27q86 0 152 -58t66 -145q0 -53 -27 -93t-95 -73q59 -41 81 -80t22 -88q1 -104 -87 -180t-212 -76t-198 63t-88 176h111
q21 -141 167 -141q77 -1 136 49t59 103zM376 -37l932 1545h112l-933 -1545h-111zM1417 472l-213 -226h177zM1575 790l-87 -544h122l-16 -100h-121l-24 -155h-108l24 155h-397z" />
    <glyph glyph-name="questiondown" unicode="&#xbf;" horiz-adv-x="1210" 
d="M591 632q-210 0 -248 -219h-136q14 167 114.5 259.5t257.5 92.5t243 -78.5t86 -188.5t-77 -190q-77 -78 -363 -181q-140 -51 -183 -88q-63 -54 -63 -141t65 -138t191 -51q283 0 321 301h136q-23 -215 -150 -325.5t-309 -110.5t-287 91t-105 225q0 195 187 300
q45 25 217 85q172 59 230 115q56 56 56 110t-50.5 93t-132.5 39zM648 894q-50 0 -86.5 36t-36.5 86t36.5 86t86.5 36t86 -36t36 -86t-36 -86t-86 -36z" />
    <glyph glyph-name="Agrave" unicode="&#xc0;" horiz-adv-x="1515" 
d="M805 1163l-314 -542h496zM852 1471l493 -1471h-151l-161 481h-623l-275 -481h-164l847 1471h34zM801 1895l175 -308h-138l-252 308h215z" />
    <glyph glyph-name="Aacute" unicode="&#xc1;" horiz-adv-x="1515" 
d="M805 1163l-314 -542h496zM852 1471l493 -1471h-151l-161 481h-623l-275 -481h-164l847 1471h34zM954 1895h215l-339 -308h-138z" />
    <glyph glyph-name="Acircumflex" unicode="&#xc2;" horiz-adv-x="1515" 
d="M805 1163l-314 -542h496zM852 1471l493 -1471h-151l-161 481h-623l-275 -481h-164l847 1471h34zM799 1840h139l254 -257h-180l-155 152l-205 -152h-186z" />
    <glyph glyph-name="Atilde" unicode="&#xc3;" horiz-adv-x="1515" 
d="M805 1163l-314 -542h496zM852 1471l493 -1471h-151l-161 481h-623l-275 -481h-164l847 1471h34zM952 1604q-62 0 -128 34t-86 41q-20 6 -52 6q-32 -1 -65 -13t-99 -56l-52 102q105 97 238 97q64 1 146 -39t134 -40t155 53l57 -97q-80 -52 -132 -70t-116 -18z" />
    <glyph glyph-name="Adieresis" unicode="&#xc4;" horiz-adv-x="1515" 
d="M805 1163l-314 -542h496zM852 1471l493 -1471h-151l-161 481h-623l-275 -481h-164l847 1471h34zM1062 1816q48 0 76 -29t29 -76q-1 -47 -41 -87t-88 -40t-76 28t-29 76q0 48 40 88q41 40 89 40zM653 1816q48 0 77 -29t29 -76q-1 -47 -41 -87t-88 -40t-76 28t-29 76
q0 48 40 88t88 40z" />
    <glyph glyph-name="Aring" unicode="&#xc5;" horiz-adv-x="1515" 
d="M805 1163l-314 -542h496zM852 1471l493 -1471h-151l-161 481h-623l-275 -481h-164l847 1471h34zM866 1888q-46 0 -84 -38t-38 -83t27 -72t73 -27t84 38t38 83t-28 72q-26 27 -72 27zM878 1989q88 -1 141 -53t53 -140t-74 -160q-74 -74 -164 -74q-88 0 -140 53t-53 140
q0 87 74 161q75 74 163 73z" />
    <glyph glyph-name="AE" unicode="&#xc6;" horiz-adv-x="2032" 
d="M1092 1344l-519 -723h423zM1743 0h-832l65 478h-504l-346 -478h-159l1059 1471h895l-21 -143h-661l-65 -482h661l-19 -141h-662l-75 -564h680z" />
    <glyph glyph-name="Ccedilla" unicode="&#xc7;" horiz-adv-x="1665" 
d="M954 1365q-194 0 -364 -95t-266 -256t-95 -336q-1 -175 73 -303q74 -129 213 -201t318 -72q273 0 509 173l82 -117q-175 -115 -301 -155t-291 -40q-20 0 -39 1l-24 -82q23 3 53 3t58 -26t29 -65q0 -70 -68 -122q-69 -52 -171 -52t-176 30l31 69q62 -20 129 -20
q67 1 100 21t33 42q0 45 -56 45q-24 0 -72 -9l48 172q-221 26 -372 146q-255 204 -255 552t255 594t634 246q173 0 315 -54t292 -186l-89 -123q-234 220 -533 220z" />
    <glyph glyph-name="Egrave" unicode="&#xc8;" horiz-adv-x="1098" 
d="M1056 1471l-21 -143h-662l-65 -482h662l-19 -141h-662l-75 -564h662l-17 -141h-811l197 1471h811zM628 1895l175 -308h-138l-252 308h215z" />
    <glyph glyph-name="Eacute" unicode="&#xc9;" horiz-adv-x="1098" 
d="M1056 1471l-21 -143h-662l-65 -482h662l-19 -141h-662l-75 -564h662l-17 -141h-811l197 1471h811zM781 1895h215l-339 -308h-138z" />
    <glyph glyph-name="Ecircumflex" unicode="&#xca;" horiz-adv-x="1098" 
d="M1056 1471l-21 -143h-662l-65 -482h662l-19 -141h-662l-75 -564h662l-17 -141h-811l197 1471h811zM627 1840h139l254 -257h-180l-155 152l-205 -152h-186z" />
    <glyph glyph-name="Edieresis" unicode="&#xcb;" horiz-adv-x="1098" 
d="M1056 1471l-21 -143h-662l-65 -482h662l-19 -141h-662l-75 -564h662l-17 -141h-811l197 1471h811zM888 1816q48 0 78 -29q28 -29 28 -76t-40 -87t-89 -40t-77 28t-28 76t40 88t88 40zM480 1816q48 0 77 -29t29 -76t-40 -87t-89 -40t-77 28t-28 76t40 88t88 40z" />
    <glyph glyph-name="Igrave" unicode="&#xcc;" horiz-adv-x="463" 
d="M238 1471h148l-199 -1471h-148zM274 1895l175 -308h-138l-252 308h215z" />
    <glyph glyph-name="Iacute" unicode="&#xcd;" horiz-adv-x="463" 
d="M238 1471h148l-199 -1471h-148zM464 1895h215l-339 -308h-138z" />
    <glyph glyph-name="Icircumflex" unicode="&#xce;" horiz-adv-x="463" 
d="M238 1471h148l-199 -1471h-148zM310 1840h139l254 -257h-180l-155 152l-205 -152h-186z" />
    <glyph glyph-name="Idieresis" unicode="&#xcf;" horiz-adv-x="463" 
d="M238 1471h148l-199 -1471h-148zM572 1816q48 0 78 -29q28 -29 28 -76t-40 -87t-89 -40t-77 28t-28 76t40 88t88 40zM164 1816q48 0 77 -29t29 -76t-40 -87t-89 -40t-77 28t-28 76t40 88t88 40z" />
    <glyph glyph-name="Eth" unicode="&#xd0;" horiz-adv-x="1618" 
d="M434 143q299 0 421 20t223.5 90.5t173.5 211.5t72 311t-82 301t-214 191t-419 61h-146l-70 -528h358l-18 -132h-358l-70 -526h129zM652 1471q299 0 459.5 -78.5t258.5 -243t98 -382.5t-110.5 -409t-272 -274.5t-481.5 -83.5h-463l89 669h-186l18 132h185l89 670h316z" />
    <glyph glyph-name="Ntilde" unicode="&#xd1;" horiz-adv-x="1515" 
d="M1265 1471h144l-199 -1471h-32l-828 1140l-154 -1140h-146l198 1471h32l830 -1142zM952 1604q-62 0 -128 34t-86 41q-20 6 -52 6q-32 -1 -65 -13t-99 -56l-52 102q105 97 238 97q64 1 146 -39t134 -40t155 53l57 -97q-80 -52 -132 -70t-116 -18z" />
    <glyph glyph-name="Ograve" unicode="&#xd2;" horiz-adv-x="1780" 
d="M954 1369q-212 0 -378 -92t-262 -261q-96 -170 -96 -346t70 -304t194 -197q124 -68 306 -68q182 -1 351 95t265 266t97 366q0 261 -183 414q-152 127 -364 127zM956 1508q296 0 494 -195t198 -493q0 -363 -250 -610t-625 -247q-318 0 -509 190t-191 497q1 237 115 435
q114 199 316 311t452 112zM934 1895l175 -308h-138l-252 308h215z" />
    <glyph glyph-name="Oacute" unicode="&#xd3;" horiz-adv-x="1780" 
d="M954 1369q-212 0 -378 -92t-262 -261q-96 -170 -96 -346t70 -304t194 -197q124 -68 306 -68q182 -1 351 95t265 266t97 366q0 261 -183 414q-152 127 -364 127zM956 1508q296 0 494 -195t198 -493q0 -363 -250 -610t-625 -247q-318 0 -509 190t-191 497q1 237 115 435
q114 199 316 311t452 112zM1087 1895h215l-339 -308h-138z" />
    <glyph glyph-name="Ocircumflex" unicode="&#xd4;" horiz-adv-x="1780" 
d="M954 1369q-212 0 -378 -92t-262 -261q-96 -170 -96 -346t70 -304t194 -197q124 -68 306 -68q182 -1 351 95t265 266t97 366q0 261 -183 414q-152 127 -364 127zM956 1508q296 0 494 -195t198 -493q0 -363 -250 -610t-625 -247q-318 0 -509 190t-191 497q1 237 115 435
q114 199 316 311t452 112zM932 1840h139l254 -257h-180l-155 152l-205 -152h-186z" />
    <glyph glyph-name="Otilde" unicode="&#xd5;" horiz-adv-x="1780" 
d="M954 1369q-212 0 -378 -92t-262 -261q-96 -170 -96 -346t70 -304t194 -197q124 -68 306 -68q182 -1 351 95t265 266t97 366q0 261 -183 414q-152 127 -364 127zM956 1508q296 0 494 -195t198 -493q0 -363 -250 -610t-625 -247q-318 0 -509 190t-191 497q1 237 115 435
q114 199 316 311t452 112zM1085 1604q-63 0 -129 34t-86 41q-20 6 -52 6q-32 -1 -64 -13q-33 -12 -99 -56l-52 102q105 97 238 97q64 1 146 -39t134 -40t155 53l57 -97q-81 -52 -133 -70t-115 -18z" />
    <glyph glyph-name="Odieresis" unicode="&#xd6;" horiz-adv-x="1780" 
d="M954 1369q-212 0 -378 -92t-262 -261q-96 -170 -96 -346t70 -304t194 -197q124 -68 306 -68q182 -1 351 95t265 266t97 366q0 261 -183 414q-152 127 -364 127zM956 1508q296 0 494 -195t198 -493q0 -363 -250 -610t-625 -247q-318 0 -509 190t-191 497q1 237 115 435
q114 199 316 311t452 112zM1194 1816q48 0 78 -29q28 -29 28 -76t-40 -87t-89 -40t-77 28t-28 76t40 88t88 40zM786 1816q48 0 77 -29t29 -76t-40 -87t-89 -40t-77 28t-28 76t40 88t88 40z" />
    <glyph glyph-name="multiply" unicode="&#xd7;" horiz-adv-x="1241" 
d="M712 735l332 -331l-92 -92l-331 331l-332 -331l-92 92l331 331l-331 332l92 92l332 -332l331 332l92 -92z" />
    <glyph glyph-name="Oslash" unicode="&#xd8;" horiz-adv-x="1778" 
d="M786 101q182 0 351.5 95.5t265.5 265t96 376.5t-133 356l-894 -1021q132 -72 314 -72zM933 1369q-194 0 -360.5 -94t-261.5 -261.5t-95 -357.5q0 -118 40 -223t110 -179l898 1027q-137 88 -331 88zM1646 820q0 -362 -250.5 -609.5t-622.5 -247.5q-233 0 -398 100
l-132 -151l-98 88l126 144q-200 194 -200 506q0 236 113.5 433t316 311t439.5 114t418 -121l121 139l102 -87l-121 -138q186 -191 186 -481z" />
    <glyph glyph-name="Ugrave" unicode="&#xd9;" horiz-adv-x="1341" 
d="M245 390q0 -138 79 -212t223 -75q199 0 311 133q54 66 86 182t61 342l92 711h145l-122 -925q-41 -251 -126 -375q-142 -208 -444 -208q-217 0 -335 110t-118 292q0 51 6 114l130 992h145l-111 -842q-22 -168 -22 -239zM714 1895l175 -308h-138l-252 308h215z" />
    <glyph glyph-name="Uacute" unicode="&#xda;" horiz-adv-x="1341" 
d="M245 390q0 -138 79 -212t223 -75q199 0 311 133q54 66 86 182t61 342l92 711h145l-122 -925q-41 -251 -126 -375q-142 -208 -444 -208q-217 0 -335 110t-118 292q0 51 6 114l130 992h145l-111 -842q-22 -168 -22 -239zM868 1895h215l-339 -308h-138z" />
    <glyph glyph-name="Ucircumflex" unicode="&#xdb;" horiz-adv-x="1341" 
d="M245 390q0 -138 79 -212t223 -75q199 0 311 133q54 66 86 182t61 342l92 711h145l-122 -925q-41 -251 -126 -375q-142 -208 -444 -208q-217 0 -335 110t-118 292q0 51 6 114l130 992h145l-111 -842q-22 -168 -22 -239zM713 1840h139l254 -257h-180l-155 152l-205 -152
h-186z" />
    <glyph glyph-name="Udieresis" unicode="&#xdc;" horiz-adv-x="1341" 
d="M245 390q0 -138 79 -212t223 -75q199 0 311 133q54 66 86 182t61 342l92 711h145l-122 -925q-41 -251 -126 -375q-142 -208 -444 -208q-217 0 -335 110t-118 292q0 51 6 114l130 992h145l-111 -842q-22 -168 -22 -239zM974 1816q48 0 78 -29q28 -29 28 -76t-40 -87
t-89 -40t-77 28t-28 76t40 88t88 40zM566 1816q48 0 77 -29t29 -76t-40 -87t-89 -40t-77 28t-28 76t40 88t88 40z" />
    <glyph glyph-name="Yacute" unicode="&#xdd;" horiz-adv-x="1212" 
d="M83 1471h154l315 -668l531 668h178l-652 -819l-89 -652h-144l89 660zM803 1895h215l-339 -308h-138z" />
    <glyph glyph-name="Thorn" unicode="&#xde;" horiz-adv-x="1212" 
d="M481 492q208 0 287.5 28.5t128 98t48.5 147.5t-33.5 126.5t-91.5 68.5t-212 20h-263l-68 -489h204zM616 1123q199 0 285 -37t138.5 -118.5t52.5 -209.5t-82 -235t-190 -141t-338 -34h-223l-47 -348h-147l197 1471h147l-47 -348h254z" />
    <glyph glyph-name="germandbls" unicode="&#xdf;" horiz-adv-x="1135" 
d="M1005 1215q0 -289 -284 -390q125 -59 187 -153.5t62 -211.5q0 -192 -124 -340t-335 -148q-125 0 -211 53l19 136q104 -55 186 -55q116 0 220.5 91t104.5 247q0 261 -345 317l22 151q111 0 194.5 39.5t127 108t43.5 148.5t-57 135t-153 55t-174.5 -55t-109.5 -127
t-53 -223l-140 -993h-141l141 993q31 216 90.5 319.5t164 163.5t240.5 60t230.5 -91.5t94.5 -229.5z" />
    <glyph glyph-name="agrave" unicode="&#xe0;" horiz-adv-x="1399" 
d="M565 100q153 0 264 64t176 182q65 120 65 274t-107 260t-293 106t-329 -145t-143 -356q0 -173 107 -279t260 -106zM693 1116q262 0 403 -235l25 207h145l-145 -1088h-141l21 164q-189 -192 -422 -192t-376 143t-143 368q0 261 186 447t447 186zM743 1598l175 -308h-138
l-252 308h215z" />
    <glyph glyph-name="aacute" unicode="&#xe1;" horiz-adv-x="1399" 
d="M565 100q153 0 264 64t176 182q65 120 65 274t-107 260t-293 106t-329 -145t-143 -356q0 -173 107 -279t260 -106zM693 1116q262 0 403 -235l25 207h145l-145 -1088h-141l21 164q-189 -192 -422 -192t-376 143t-143 368q0 261 186 447t447 186zM896 1598h215l-339 -308
h-138z" />
    <glyph glyph-name="acircumflex" unicode="&#xe2;" horiz-adv-x="1399" 
d="M565 100q153 0 264 64t176 182q65 120 65 274t-107 260t-293 106t-329 -145t-143 -356q0 -173 107 -279t260 -106zM693 1116q262 0 403 -235l25 207h145l-145 -1088h-141l21 164q-189 -192 -422 -192t-376 143t-143 368q0 261 186 447t447 186zM742 1542h139l254 -257
h-180l-155 152l-205 -152h-186z" />
    <glyph glyph-name="atilde" unicode="&#xe3;" horiz-adv-x="1399" 
d="M565 100q153 0 264 64t176 182q65 120 65 274t-107 260t-293 106t-329 -145t-143 -356q0 -173 107 -279t260 -106zM693 1116q262 0 403 -235l25 207h145l-145 -1088h-141l21 164q-189 -192 -422 -192t-376 143t-143 368q0 261 186 447t447 186zM894 1307q-62 1 -128 35
t-86 40t-52 6t-65 -12t-99 -57l-52 102q105 97 238 97q64 0 146 -40t134 -39q52 0 155 53l57 -97q-80 -52 -132 -70t-116 -18z" />
    <glyph glyph-name="adieresis" unicode="&#xe4;" horiz-adv-x="1399" 
d="M565 100q153 0 264 64t176 182q65 120 65 274t-107 260t-293 106t-329 -145t-143 -356q0 -173 107 -279t260 -106zM693 1116q262 0 403 -235l25 207h145l-145 -1088h-141l21 164q-189 -192 -422 -192t-376 143t-143 368q0 261 186 447t447 186zM1004 1518q48 0 76 -29
t29 -76q-1 -47 -41 -87t-88 -40t-76 28t-29 76q0 48 40 88q41 40 89 40zM595 1518q48 0 77 -29t29 -76q-1 -47 -41 -87t-88 -40t-76 28t-29 76q0 48 40 88t88 40z" />
    <glyph glyph-name="aring" unicode="&#xe5;" horiz-adv-x="1399" 
d="M565 100q153 0 264 64t176 182q65 120 65 274t-107 260t-293 106t-329 -145t-143 -356q0 -173 107 -279t260 -106zM693 1116q262 0 403 -235l25 207h145l-145 -1088h-141l21 164q-189 -192 -422 -192t-376 143t-143 368q0 261 186 447t447 186zM808 1590q-46 0 -84 -38
t-38 -83t27 -72t73 -27t84 38t38 83t-28 72q-26 27 -72 27zM820 1691q88 -1 141 -53t53 -140t-74 -160q-74 -74 -164 -74q-88 0 -140 53t-53 140q0 87 74 161q75 74 163 73z" />
    <glyph glyph-name="ae" unicode="&#xe6;" horiz-adv-x="2370" 
d="M1712 985q-170 0 -294 -93.5t-173 -256.5h836q-5 149 -102 249.5t-267 100.5zM195 495q0 -180 109 -286.5t289 -106.5q134 0 247.5 64t179 181t65.5 233t-81 261.5t-315 145.5t-374 -169q-120 -143 -120 -323zM1706 1116q223 0 365 -140.5t142 -363.5q0 -45 -8 -96h-985
l-3 -47q0 -98 78 -233t309 -135t384 174l107 -79q-180 -224 -498 -224q-156 0 -262 56.5t-180 171.5l-27 -200h-124l21 170q-196 -198 -441 -198q-246 0 -386 146t-140 388t184.5 426t436.5 184q160 0 275 -70q86 -53 165 -177l30 219h125l-22 -178q182 206 454 206z" />
    <glyph glyph-name="ccedilla" unicode="&#xe7;" horiz-adv-x="1325" 
d="M713 982q-144 0 -263 -64t-186 -178t-67 -236t50 -214q104 -189 354 -189q127 0 241 50t178 129l115 -81q-108 -118 -233 -172t-289 -55l-26 -90q23 3 53 3t58 -26t29 -65q0 -70 -68 -122q-69 -52 -171 -52t-176 30l31 69q62 -20 129 -20q67 1 100 21t33 42q0 45 -56 45
q-24 0 -72 -9l49 178q-202 18 -322 136q-144 140 -144 388t190 432t464 184q165 0 291 -70t193 -193l-115 -67q-121 196 -370 196z" />
    <glyph glyph-name="egrave" unicode="&#xe8;" horiz-adv-x="1331" 
d="M678 982q-156 0 -282 -92q-124 -92 -176 -253h818q-6 153 -105 249t-255 96zM574 100q115 0 213 47t162 132l104 -85q-79 -102 -207 -162t-275 -60q-257 0 -385 158t-128 339q0 180 86 330q86 149 232 233q145 84 314 84q209 0 346 -142t137 -360q0 -40 -7 -98h-970
q-3 -194 101 -305t277 -111zM709 1598l175 -308h-138l-252 308h215z" />
    <glyph glyph-name="eacute" unicode="&#xe9;" horiz-adv-x="1331" 
d="M678 982q-156 0 -282 -92q-124 -92 -176 -253h818q-6 153 -105 249t-255 96zM574 100q115 0 213 47t162 132l104 -85q-79 -102 -207 -162t-275 -60q-257 0 -385 158t-128 339q0 180 86 330q86 149 232 233q145 84 314 84q209 0 346 -142t137 -360q0 -40 -7 -98h-970
q-3 -194 101 -305t277 -111zM862 1598h215l-339 -308h-138z" />
    <glyph glyph-name="ecircumflex" unicode="&#xea;" horiz-adv-x="1331" 
d="M678 982q-156 0 -282 -92q-124 -92 -176 -253h818q-6 153 -105 249t-255 96zM574 100q115 0 213 47t162 132l104 -85q-79 -102 -207 -162t-275 -60q-257 0 -385 158t-128 339q0 180 86 330q86 149 232 233q145 84 314 84q209 0 346 -142t137 -360q0 -40 -7 -98h-970
q-3 -194 101 -305t277 -111zM707 1542h139l254 -257h-180l-155 152l-205 -152h-186z" />
    <glyph glyph-name="edieresis" unicode="&#xeb;" horiz-adv-x="1331" 
d="M678 982q-156 0 -282 -92q-124 -92 -176 -253h818q-6 153 -105 249t-255 96zM574 100q115 0 213 47t162 132l104 -85q-79 -102 -207 -162t-275 -60q-257 0 -385 158t-128 339q0 180 86 330q86 149 232 233q145 84 314 84q209 0 346 -142t137 -360q0 -40 -7 -98h-970
q-3 -194 101 -305t277 -111zM970 1518q48 0 76 -29t29 -76q-1 -47 -41 -87t-88 -40t-76 28t-29 76q0 48 40 88q41 40 89 40zM561 1518q48 0 77 -29t29 -76q-1 -47 -41 -87t-88 -40t-76 28t-29 76q0 48 40 88t88 40z" />
    <glyph glyph-name="igrave" unicode="&#xec;" horiz-adv-x="410" 
d="M164 1088h133l-145 -1088h-138zM248 1598l175 -308h-138l-252 308h215z" />
    <glyph glyph-name="iacute" unicode="&#xed;" horiz-adv-x="410" 
d="M164 1088h133l-145 -1088h-138zM402 1598h215l-339 -308h-138z" />
    <glyph glyph-name="icircumflex" unicode="&#xee;" horiz-adv-x="410" 
d="M164 1088h133l-145 -1088h-138zM247 1542h139l254 -257h-180l-155 152l-205 -152h-186z" />
    <glyph glyph-name="idieresis" unicode="&#xef;" horiz-adv-x="410" 
d="M164 1088h133l-145 -1088h-138zM510 1518q48 0 76 -29t29 -76q-1 -47 -41 -87t-88 -40t-76 28t-29 76q0 48 40 88q41 40 89 40zM101 1518q48 0 77 -29t29 -76q-1 -47 -41 -87t-88 -40t-76 28t-29 76q0 48 40 88t88 40z" />
    <glyph glyph-name="eth" unicode="&#xf0;" horiz-adv-x="1341" 
d="M705 975q-138 0 -255.5 -67.5t-185 -182t-67.5 -230.5t48.5 -205.5t130.5 -136.5t191 -47t224.5 69.5t182 187.5t66.5 265t-98.5 247t-236.5 100zM1184 648q0 -192 -83.5 -343.5t-234 -242t-300.5 -90.5t-261 64.5t-178 187.5t-67 270t87 296.5t232 237.5t303 88
t272 -104q-75 156 -195 280l-228 -86l-39 101l177 65q-93 71 -198 136h189q73 -40 132 -89l183 68l35 -100l-126 -47q142 -140 221 -320t79 -372z" />
    <glyph glyph-name="ntilde" unicode="&#xf1;" horiz-adv-x="1249" 
d="M689 1116q168 0 271 -104t103 -278q0 -70 -22 -235l-68 -499h-138l67 499q22 160 22 236q0 114 -69 184t-180 70q-111 -1 -205 -57t-147 -154q-52 -98 -80 -308l-65 -470h-137l151 1088h134l-21 -167q165 195 384 195zM820 1307q-62 1 -128 35t-86 40t-52 6t-65 -12
t-99 -57l-52 102q105 97 238 97q64 0 146 -40t134 -39q52 0 155 53l57 -97q-80 -52 -132 -70t-116 -18z" />
    <glyph glyph-name="ograve" unicode="&#xf2;" horiz-adv-x="1341" 
d="M663 983q-117 0 -231 -65q-114 -64 -176 -178t-61 -268q0 -154 106 -262t274 -108q131 0 237 62t170 181q63 118 63 242q0 123 -47 211t-133 136t-202 49zM665 1116q154 0 270 -66t181 -186q65 -118 65 -278t-83 -308q-83 -146 -223 -226t-317 -80q-218 0 -360 144
t-142 365q0 174 83 321q83 146 227 230t299 84zM714 1598l175 -308h-138l-252 308h215z" />
    <glyph glyph-name="oacute" unicode="&#xf3;" horiz-adv-x="1341" 
d="M663 983q-117 0 -231 -65q-114 -64 -176 -178t-61 -268q0 -154 106 -262t274 -108q131 0 237 62t170 181q63 118 63 242q0 123 -47 211t-133 136t-202 49zM665 1116q154 0 270 -66t181 -186q65 -118 65 -278t-83 -308q-83 -146 -223 -226t-317 -80q-218 0 -360 144
t-142 365q0 174 83 321q83 146 227 230t299 84zM868 1598h215l-339 -308h-138z" />
    <glyph glyph-name="ocircumflex" unicode="&#xf4;" horiz-adv-x="1341" 
d="M663 983q-117 0 -231 -65q-114 -64 -176 -178t-61 -268q0 -154 106 -262t274 -108q131 0 237 62t170 181q63 118 63 242q0 123 -47 211t-133 136t-202 49zM665 1116q154 0 270 -66t181 -186q65 -118 65 -278t-83 -308q-83 -146 -223 -226t-317 -80q-218 0 -360 144
t-142 365q0 174 83 321q83 146 227 230t299 84zM713 1542h139l254 -257h-180l-155 152l-205 -152h-186z" />
    <glyph glyph-name="otilde" unicode="&#xf5;" horiz-adv-x="1341" 
d="M663 983q-117 0 -231 -65q-114 -64 -176 -178t-61 -268q0 -154 106 -262t274 -108q131 0 237 62t170 181q63 118 63 242q0 123 -47 211t-133 136t-202 49zM665 1116q154 0 270 -66t181 -186q65 -118 65 -278t-83 -308q-83 -146 -223 -226t-317 -80q-218 0 -360 144
t-142 365q0 174 83 321q83 146 227 230t299 84zM865 1307q-63 1 -129 35t-86 40t-52 6t-64 -12q-33 -12 -99 -57l-52 102q105 97 238 97q64 0 146 -40t134 -39q52 0 155 53l57 -97q-81 -52 -133 -70t-115 -18z" />
    <glyph glyph-name="odieresis" unicode="&#xf6;" horiz-adv-x="1341" 
d="M663 983q-117 0 -231 -65q-114 -64 -176 -178t-61 -268q0 -154 106 -262t274 -108q131 0 237 62t170 181q63 118 63 242q0 123 -47 211t-133 136t-202 49zM665 1116q154 0 270 -66t181 -186q65 -118 65 -278t-83 -308q-83 -146 -223 -226t-317 -80q-218 0 -360 144
t-142 365q0 174 83 321q83 146 227 230t299 84zM974 1518q48 0 78 -29q28 -29 28 -76t-40 -87t-89 -40t-77 28t-28 76t40 88t88 40zM566 1518q48 0 77 -29t29 -76t-40 -87t-89 -40t-77 28t-28 76t40 88t88 40z" />
    <glyph glyph-name="divide" unicode="&#xf7;" horiz-adv-x="1124" 
d="M461 466h201v-205h-201v205zM56 804h1012v-137h-1012v137zM461 1207h201v-202h-201v202z" />
    <glyph glyph-name="oslash" unicode="&#xf8;" horiz-adv-x="1337" 
d="M588 102q116 0 222.5 62.5t169.5 180.5t63 249t-63 233l-594 -682q86 -43 202 -43zM667 983q-124 0 -238 -66t-175 -179.5t-61 -257.5t89 -252l604 694q-95 61 -219 61zM1179 606q0 -182 -82.5 -328t-223 -226t-306.5 -80t-274 66l-129 -149l-101 87l127 146
q-136 146 -136 359q0 173 82.5 319.5t227 231t314.5 84.5t297 -92l121 139l103 -84l-128 -148q108 -143 108 -325z" />
    <glyph glyph-name="ugrave" unicode="&#xf9;" horiz-adv-x="1245" 
d="M239 385q-1 -125 83 -204t210 -79t209 60q84 60 120 157q18 49 43 225l78 544h137l-56 -412q-40 -296 -85 -420q-44 -124 -160 -204t-294 -80t-298 116t-120 288q0 69 11 161l10 96l61 455h140l-63 -455q-26 -193 -26 -248zM666 1598l175 -308h-138l-252 308h215z" />
    <glyph glyph-name="uacute" unicode="&#xfa;" horiz-adv-x="1245" 
d="M239 385q-1 -125 83 -204t210 -79t209 60q84 60 120 157q18 49 43 225l78 544h137l-56 -412q-40 -296 -85 -420q-44 -124 -160 -204t-294 -80t-298 116t-120 288q0 69 11 161l10 96l61 455h140l-63 -455q-26 -193 -26 -248zM820 1598h215l-339 -308h-138z" />
    <glyph glyph-name="ucircumflex" unicode="&#xfb;" horiz-adv-x="1245" 
d="M239 385q-1 -125 83 -204t210 -79t209 60q84 60 120 157q18 49 43 225l78 544h137l-56 -412q-40 -296 -85 -420q-44 -124 -160 -204t-294 -80t-298 116t-120 288q0 69 11 161l10 96l61 455h140l-63 -455q-26 -193 -26 -248zM665 1542h139l254 -257h-180l-155 152
l-205 -152h-186z" />
    <glyph glyph-name="udieresis" unicode="&#xfc;" horiz-adv-x="1245" 
d="M239 385q-1 -125 83 -204t210 -79t209 60q84 60 120 157q18 49 43 225l78 544h137l-56 -412q-40 -296 -85 -420q-44 -124 -160 -204t-294 -80t-298 116t-120 288q0 69 11 161l10 96l61 455h140l-63 -455q-26 -193 -26 -248zM926 1518q48 0 78 -29q28 -29 28 -76t-40 -87
t-89 -40t-77 28t-28 76t40 88t88 40zM518 1518q48 0 77 -29t29 -76t-40 -87t-89 -40t-77 28t-28 76t40 88t88 40z" />
    <glyph glyph-name="yacute" unicode="&#xfd;" horiz-adv-x="1098" 
d="M47 1088h144l282 -803l466 803h155l-862 -1486h-157l308 531zM746 1598h215l-339 -308h-138z" />
    <glyph glyph-name="thorn" unicode="&#xfe;" horiz-adv-x="1397" 
d="M742 988q-134 0 -245.5 -63.5t-176.5 -183t-65 -273.5t107.5 -260t293.5 -106t328.5 145t142.5 356q0 173 -106.5 279t-278.5 106zM633 -28q-262 0 -403 236l-79 -606h-145l254 1906h142l-77 -583q189 191 422 191t375.5 -143t142.5 -368q0 -260 -185 -446.5t-447 -186.5
z" />
    <glyph glyph-name="ydieresis" unicode="&#xff;" horiz-adv-x="1098" 
d="M47 1088h144l282 -803l466 803h155l-862 -1486h-157l308 531zM854 1518q48 0 76 -29t29 -76q-1 -47 -41 -87t-88 -40t-76 28t-29 76q0 48 40 88q41 40 89 40zM445 1518q48 0 77 -29t29 -76q-1 -47 -41 -87t-88 -40t-76 28t-29 76q0 48 40 88t88 40z" />
    <glyph glyph-name="Amacron" unicode="&#x100;" horiz-adv-x="1515" 
d="M805 1163l-314 -542h496zM852 1471l493 -1471h-151l-161 481h-623l-275 -481h-164l847 1471h34zM488 1776h690l-17 -119h-690z" />
    <glyph glyph-name="amacron" unicode="&#x101;" horiz-adv-x="1399" 
d="M565 100q153 0 264 64t176 182q65 120 65 274t-107 260t-293 106t-329 -145t-143 -356q0 -173 107 -279t260 -106zM693 1116q262 0 403 -235l25 207h145l-145 -1088h-141l21 164q-189 -192 -422 -192t-376 143t-143 368q0 261 186 447t447 186zM418 1479h690l-17 -119
h-690z" />
    <glyph glyph-name="Abreve" unicode="&#x102;" horiz-adv-x="1515" 
d="M805 1163l-314 -542h496zM852 1471l493 -1471h-151l-161 481h-623l-275 -481h-164l847 1471h34zM866 1718q82 0 135 22t105 82h128q-34 -90 -134 -150t-248 -61q-148 0 -231 60q-84 60 -96 151h132q53 -104 209 -104z" />
    <glyph glyph-name="abreve" unicode="&#x103;" horiz-adv-x="1399" 
d="M565 100q153 0 264 64t176 182q65 120 65 274t-107 260t-293 106t-329 -145t-143 -356q0 -173 107 -279t260 -106zM693 1116q262 0 403 -235l25 207h145l-145 -1088h-141l21 164q-189 -192 -422 -192t-376 143t-143 368q0 261 186 447t447 186zM771 1421q82 1 135 23
t105 81h128q-35 -91 -135 -151t-246 -60q-148 0 -232 60t-96 151h132q53 -104 209 -104z" />
    <glyph glyph-name="Aogonek" unicode="&#x104;" horiz-adv-x="1515" 
d="M805 1163l-314 -542h496zM1211 -204q0 -44 32 -72q33 -28 81 -27q48 0 88 5l-21 -85q-43 -10 -86 -10q-105 0 -155 45q-50 44 -50 108t40 130t111 110h-57l-161 481h-623l-275 -481h-164l847 1471h34l493 -1471h15q-149 -113 -149 -204z" />
    <glyph glyph-name="aogonek" unicode="&#x105;" horiz-adv-x="1399" 
d="M565 100q153 0 264 64t176 182q65 120 65 274t-107 260t-293 106t-329 -145t-143 -356q0 -173 107 -279t260 -106zM693 1116q262 0 403 -235l25 207h145l-145 -1088h-26q-149 -113 -149 -204q0 -44 32 -72t80 -27q48 0 89 5l-21 -85q-43 -10 -86 -10q-104 0 -154 45
q-50 44 -51 108q0 64 40 130t111 110h-6l21 164q-189 -192 -422 -192t-376 143t-143 368q0 261 186 447t447 186z" />
    <glyph glyph-name="Cacute" unicode="&#x106;" horiz-adv-x="1665" 
d="M954 1365q-194 0 -364 -95t-266 -256t-95 -336q-1 -175 73 -303q74 -129 213 -201t318 -72q273 0 509 173l82 -117q-175 -115 -301 -155t-291 -40q-305 0 -497 153q-255 204 -255 552t255 594t634 246q173 0 315 -54t292 -186l-89 -123q-234 220 -533 220zM1066 1891h215
l-339 -308h-138z" />
    <glyph glyph-name="cacute" unicode="&#x107;" horiz-adv-x="1325" 
d="M713 982q-144 0 -263 -64t-186 -178t-67 -236t50 -214q104 -189 354 -189q127 0 241 50t178 129l115 -81q-109 -119 -235 -173t-293 -54q-259 0 -403 140t-144 388t190 432t464 184q165 0 291 -70t193 -193l-115 -67q-121 196 -370 196zM859 1598h215l-339 -308h-138z
" />
    <glyph glyph-name="Ccircumflex" unicode="&#x108;" horiz-adv-x="1665" 
d="M954 1365q-194 0 -364 -95t-266 -256t-95 -336q-1 -175 73 -303q74 -129 213 -201t318 -72q273 0 509 173l82 -117q-175 -115 -301 -155t-291 -40q-305 0 -497 153q-255 204 -255 552t255 594t634 246q173 0 315 -54t292 -186l-89 -123q-234 220 -533 220zM908 1840h139
l254 -257h-180l-155 152l-205 -152h-186z" />
    <glyph glyph-name="ccircumflex" unicode="&#x109;" horiz-adv-x="1325" 
d="M713 982q-144 0 -263 -64t-186 -178t-67 -236t50 -214q104 -189 354 -189q127 0 241 50t178 129l115 -81q-109 -119 -235 -173t-293 -54q-259 0 -403 140t-144 388t190 432t464 184q165 0 291 -70t193 -193l-115 -67q-121 196 -370 196zM671 1542h139l254 -257h-180
l-155 152l-205 -152h-186z" />
    <glyph glyph-name="Cdot" unicode="&#x10a;" horiz-adv-x="1665" 
d="M954 1365q-194 0 -364 -95t-266 -256t-95 -336q-1 -175 73 -303q74 -129 213 -201t318 -72q273 0 509 173l82 -117q-175 -115 -301 -155t-291 -40q-305 0 -497 153q-255 204 -255 552t255 594t634 246q173 0 315 -54t292 -186l-89 -123q-234 220 -533 220zM978 1816
q48 0 77 -29t29 -76t-40 -87t-89 -40t-77 28t-28 76t40 88t88 40z" />
    <glyph glyph-name="cdot" unicode="&#x10b;" horiz-adv-x="1325" 
d="M713 982q-144 0 -263 -64t-186 -178t-67 -236t50 -214q104 -189 354 -189q127 0 241 50t178 129l115 -81q-109 -119 -235 -173t-293 -54q-259 0 -403 140t-144 388t190 432t464 184q165 0 291 -70t193 -193l-115 -67q-121 196 -370 196zM741 1518q48 0 77 -29t29 -76
q-1 -47 -41 -87t-88 -40t-76 28t-29 76q0 48 40 88t88 40z" />
    <glyph glyph-name="Ccaron" unicode="&#x10c;" horiz-adv-x="1665" 
d="M954 1365q-194 0 -364 -95t-266 -256t-95 -336q-1 -175 73 -303q74 -129 213 -201t318 -72q273 0 509 173l82 -117q-175 -115 -301 -155t-291 -40q-305 0 -497 153q-255 204 -255 552t255 594t634 246q173 0 315 -54t292 -186l-89 -123q-234 220 -533 220zM1044 1578
h-139l-254 257h180l155 -152l205 152h186z" />
    <glyph glyph-name="ccaron" unicode="&#x10d;" horiz-adv-x="1325" 
d="M713 982q-144 0 -263 -64t-186 -178t-67 -236t50 -214q104 -189 354 -189q127 0 241 50t178 129l115 -81q-109 -119 -235 -173t-293 -54q-259 0 -403 140t-144 388t190 432t464 184q165 0 291 -70t193 -193l-115 -67q-121 196 -370 196zM801 1285h-139l-254 257h180
l155 -152l205 152h186z" />
    <glyph glyph-name="Dcaron" unicode="&#x10e;" horiz-adv-x="1524" 
d="M340 143q298 0 420 20q122 21 224 91q101 70 173 210t72 312q1 170 -81 301t-214 191t-419 61h-147l-157 -1186h129zM557 1471q300 -1 460 -79t258 -242t98 -383q-1 -218 -111 -409q-110 -190 -272 -274t-481 -84h-463l195 1471h316zM823 1583h-139l-254 257h180
l155 -152l205 152h186z" />
    <glyph glyph-name="dcaron" unicode="&#x10f;" horiz-adv-x="1411" 
d="M1416 1040l-61 37q71 114 86 196h-74l32 235h150l-10 -105q-14 -137 -42.5 -214t-80.5 -149zM585 100q214 0 350.5 146t136.5 340t-110 297t-290 103t-326 -142.5t-146 -358.5q0 -178 110 -281.5t275 -103.5zM570 -28q-207 0 -357.5 135.5t-150.5 375.5q0 178 87 321
t231 227.5t304 84.5q283 0 414 -235l81 627h145l-201 -1508h-141l21 164q-189 -192 -433 -192z" />
    <glyph glyph-name="Dslash" unicode="&#x110;" horiz-adv-x="1618" 
d="M434 143q299 0 421 20t223.5 90.5t173.5 211.5t72 311t-82 301t-214 191t-419 61h-146l-70 -528h358l-18 -132h-358l-70 -526h129zM652 1471q299 0 459.5 -78.5t258.5 -243t98 -382.5t-110.5 -409t-272 -274.5t-481.5 -83.5h-463l89 669h-186l18 132h185l89 670h316z" />
    <glyph glyph-name="dmacron" unicode="&#x111;" horiz-adv-x="1403" 
d="M567 100q153 0 264 63.5t176 183t65 273.5t-107 260t-293 106t-329 -145t-143 -356q0 -173 107 -279t260 -106zM695 1116q262 0 403 -235l47 365h-411l19 132h409l17 130h145l-17 -130h143l-18 -132h-143l-166 -1246h-141l21 164q-189 -192 -422 -192t-376 143t-143 368
q0 260 185.5 446.5t447.5 186.5z" />
    <glyph glyph-name="Emacron" unicode="&#x112;" horiz-adv-x="1098" 
d="M1056 1471l-21 -143h-662l-65 -482h662l-19 -141h-662l-75 -564h662l-17 -141h-811l197 1471h811zM319 1776h690l-17 -119h-690z" />
    <glyph glyph-name="emacron" unicode="&#x113;" horiz-adv-x="1331" 
d="M678 982q-156 0 -282 -92q-124 -92 -176 -253h818q-6 153 -105 249t-255 96zM574 100q115 0 213 47t162 132l104 -85q-79 -102 -207 -162t-275 -60q-257 0 -385 158t-128 339q0 180 86 330q86 149 232 233q145 84 314 84q209 0 346 -142t137 -360q0 -40 -7 -98h-970
q-3 -194 101 -305t277 -111zM370 1479h690l-17 -119h-690z" />
    <glyph glyph-name="Ebreve" unicode="&#x114;" horiz-adv-x="1098" 
d="M1056 1471l-21 -143h-662l-65 -482h662l-19 -141h-662l-75 -564h662l-17 -141h-811l197 1471h811zM657 1719q82 1 135 23t105 81h128q-35 -91 -135 -151t-246 -60q-148 0 -232 60t-96 151h132q53 -104 209 -104z" />
    <glyph glyph-name="ebreve" unicode="&#x115;" horiz-adv-x="1331" 
d="M678 982q-156 0 -282 -92q-124 -92 -176 -253h818q-6 153 -105 249t-255 96zM574 100q115 0 213 47t162 132l104 -85q-79 -102 -207 -162t-275 -60q-257 0 -385 158t-128 339q0 180 86 330q86 149 232 233q145 84 314 84q209 0 346 -142t137 -360q0 -40 -7 -98h-970
q-3 -194 101 -305t277 -111zM721 1421q82 1 135 23t105 81h128q-35 -91 -135 -151t-246 -60q-148 0 -232 60t-96 151h132q53 -104 209 -104z" />
    <glyph glyph-name="Edot" unicode="&#x116;" horiz-adv-x="1098" 
d="M1056 1471l-21 -143h-662l-65 -482h662l-19 -141h-662l-75 -564h662l-17 -141h-811l197 1471h811zM677 1816q48 0 77 -29t29 -76q-1 -47 -41 -87t-88 -40t-76 28t-29 76q0 48 40 88t88 40z" />
    <glyph glyph-name="edot" unicode="&#x117;" horiz-adv-x="1331" 
d="M678 982q-156 0 -282 -92q-124 -92 -176 -253h818q-6 153 -105 249t-255 96zM574 100q115 0 213 47t162 132l104 -85q-79 -102 -207 -162t-275 -60q-257 0 -385 158t-128 339q0 180 86 330q86 149 232 233q145 84 314 84q209 0 346 -142t137 -360q0 -40 -7 -98h-970
q-3 -194 101 -305t277 -111zM728 1518q48 0 77 -29t29 -76t-40 -87t-89 -40t-77 28t-28 76t40 88t88 40z" />
    <glyph glyph-name="Eogonek" unicode="&#x118;" horiz-adv-x="1098" 
d="M621 -204q0 -44 32 -72q33 -28 81 -27q48 0 88 5l-21 -85q-43 -10 -86 -10q-105 0 -155 45q-50 44 -50 108t40 130t111 110h-613l197 1471h811l-21 -143h-662l-65 -482h662l-19 -141h-662l-75 -564h662l-17 -141h-89q-149 -113 -149 -204z" />
    <glyph glyph-name="eogonek" unicode="&#x119;" horiz-adv-x="1331" 
d="M678 982q-156 0 -282 -92q-124 -92 -176 -253h818q-6 153 -105 249t-255 96zM574 100q115 0 213 47t162 132l104 -85q-79 -102 -207 -162q-70 -33 -146 -48q-129 -104 -129 -188q0 -44 32 -72q33 -28 81 -27q48 0 88 5l-21 -85q-43 -10 -86 -10q-105 0 -155 45
q-50 44 -50 108t34 120t78 92h-1q-257 0 -385 158t-128 339q0 180 86 330q86 149 232 233q145 84 314 84q209 0 346 -142t137 -360q0 -40 -7 -98h-970q-3 -194 101 -305t277 -111z" />
    <glyph glyph-name="Ecaron" unicode="&#x11a;" horiz-adv-x="1098" 
d="M1056 1471l-21 -143h-662l-65 -482h662l-19 -141h-662l-75 -564h662l-17 -141h-811l197 1471h811zM723 1583h-139l-254 257h180l155 -152l205 152h186z" />
    <glyph glyph-name="ecaron" unicode="&#x11b;" horiz-adv-x="1331" 
d="M678 982q-156 0 -282 -92q-124 -92 -176 -253h818q-6 153 -105 249t-255 96zM574 100q115 0 213 47t162 132l104 -85q-79 -102 -207 -162t-275 -60q-257 0 -385 158t-128 339q0 180 86 330q86 149 232 233q145 84 314 84q209 0 346 -142t137 -360q0 -40 -7 -98h-970
q-3 -194 101 -305t277 -111zM803 1285h-139l-254 257h180l155 -152l205 152h186z" />
    <glyph glyph-name="Gcircumflex" unicode="&#x11c;" horiz-adv-x="1786" 
d="M902 1368q-166 0 -328 -94t-254 -252q-92 -156 -93 -335q-1 -243 173 -413t423 -171q149 0 286 61q270 120 346 412h-539v145h716q-22 -338 -242 -548t-554 -210t-545 205t-211 515q0 221 111 413t305 302t420 110q407 0 681 -353l-118 -87q-111 144 -261 222t-316 78z
M898 1840h139l254 -257h-180l-155 152l-205 -152h-186z" />
    <glyph glyph-name="gcircumflex" unicode="&#x11d;" horiz-adv-x="1378" 
d="M696 983q-136 1 -252 -65q-118 -66 -182 -178t-65 -262q0 -150 102 -247q102 -98 292 -98q189 0 327 136q138 137 138 331t-112 288t-248 95zM671 1116q259 0 415 -235l27 207h137l-125 -921q-30 -223 -73 -312q-59 -123 -196 -202q-136 -79 -322 -79q-374 0 -512 292
l125 45q114 -207 385 -207q144 0 248 58t149 149q27 55 55 239l6 43q-176 -193 -416 -193t-377 138t-137 357q0 163 84 305t230 229t297 87zM678 1542h139l254 -257h-180l-155 152l-205 -152h-186z" />
    <glyph glyph-name="Gbreve" unicode="&#x11e;" horiz-adv-x="1786" 
d="M902 1368q-166 0 -328 -94t-254 -252q-92 -156 -93 -335q-1 -243 173 -413t423 -171q149 0 286 61q270 120 346 412h-539v145h716q-22 -338 -242 -548t-554 -210t-545 205t-211 515q0 221 111 413t305 302t420 110q407 0 681 -353l-118 -87q-111 144 -261 222t-316 78z
M949 1714q82 0 135 22t105 82h128q-35 -90 -135 -150t-246 -61q-148 0 -232 60t-96 151h132q53 -104 209 -104z" />
    <glyph glyph-name="gbreve" unicode="&#x11f;" horiz-adv-x="1378" 
d="M696 983q-136 1 -252 -65q-118 -66 -182 -178t-65 -262q0 -150 102 -247q102 -98 292 -98q189 0 327 136q138 137 138 331t-112 288t-248 95zM671 1116q259 0 415 -235l27 207h137l-125 -921q-30 -223 -73 -312q-59 -123 -196 -202q-136 -79 -322 -79q-374 0 -512 292
l125 45q114 -207 385 -207q144 0 248 58t149 149q27 55 55 239l6 43q-176 -193 -416 -193t-377 138t-137 357q0 163 84 305t230 229t297 87zM782 1421q82 1 135 23t105 81h128q-34 -91 -134 -151t-248 -60t-231 60q-84 60 -96 151h132q53 -104 209 -104z" />
    <glyph glyph-name="Gdot" unicode="&#x120;" horiz-adv-x="1786" 
d="M902 1368q-166 0 -328 -94t-254 -252q-92 -156 -93 -335q-1 -243 173 -413t423 -171q149 0 286 61q270 120 346 412h-539v145h716q-22 -338 -242 -548t-554 -210t-545 205t-211 515q0 221 111 413t305 302t420 110q407 0 681 -353l-118 -87q-111 144 -261 222t-316 78z
M962 1816q48 0 77 -29t29 -76t-40 -87t-89 -40t-77 28t-28 76t40 88t88 40z" />
    <glyph glyph-name="gdot" unicode="&#x121;" horiz-adv-x="1378" 
d="M696 983q-136 1 -252 -65q-118 -66 -182 -178t-65 -262q0 -150 102 -247q102 -98 292 -98q189 0 327 136q138 137 138 331t-112 288t-248 95zM671 1116q259 0 415 -235l27 207h137l-125 -921q-30 -223 -73 -312q-59 -123 -196 -202q-136 -79 -322 -79q-374 0 -512 292
l125 45q114 -207 385 -207q144 0 248 58t149 149q27 55 55 239l6 43q-176 -193 -416 -193t-377 138t-137 357q0 163 84 305t230 229t297 87zM748 1518q48 0 77 -29t29 -76t-40 -87t-89 -40t-77 28t-28 76t40 88t88 40z" />
    <glyph glyph-name="Gcedilla" unicode="&#x122;" horiz-adv-x="1786" 
d="M902 1368q-166 0 -328 -94t-254 -252q-92 -156 -93 -335q-1 -243 173 -413t423 -171q149 0 286 61q270 120 346 412h-539v145h716q-22 -338 -242 -548t-549 -210l-23 -81q24 3 54 3t58 -26t28 -65q0 -70 -68 -122t-170 -52t-177 30l31 69q62 -20 129 -20q67 1 100 21
t33 42q0 45 -56 45q-24 0 -72 -9l47 168q-280 23 -464 202q-211 205 -211 515q0 221 111 413t305 302t420 110q407 0 681 -353l-118 -87q-111 144 -261 222t-316 78z" />
    <glyph glyph-name="gcedilla" unicode="&#x123;" horiz-adv-x="1378" 
d="M696 983q-136 1 -252 -65q-118 -66 -182 -178t-65 -262q0 -150 102 -247q102 -98 292 -98q189 0 327 136q138 137 138 331t-112 288t-248 95zM671 1116q259 0 415 -235l27 207h137l-125 -921q-30 -223 -73 -312q-59 -123 -196 -202q-136 -79 -322 -79q-374 0 -512 292
l125 45q114 -207 385 -207q144 0 248 58t149 149q27 55 55 239l6 43q-176 -193 -416 -193t-377 138t-137 357q0 163 84 305t230 229t297 87zM794 1818l72 -44q-55 -91 -72 -131t-30 -99h88l-39 -277h-176l13 123q15 155 47 245t97 183z" />
    <glyph glyph-name="Hcircumflex" unicode="&#x124;" horiz-adv-x="1399" 
d="M245 1471h145l-79 -598h753l80 598h143l-193 -1471h-144l97 734h-757l-96 -734h-146zM747 1840h139l254 -257h-180l-155 152l-205 -152h-186z" />
    <glyph glyph-name="hcircumflex" unicode="&#x125;" horiz-adv-x="1249" 
d="M688 1116q166 0 270 -103t104 -268q0 -91 -22 -245l-68 -500h-138l68 500q21 152 21 252t-70 169t-180 69q-111 0 -205 -57t-146 -154t-80 -308l-65 -471h-136l207 1508h136l-80 -585q168 193 384 193zM656 1840h139l254 -257h-180l-155 152l-205 -152h-186z" />
    <glyph glyph-name="Hbar" unicode="&#x126;" horiz-adv-x="1399" 
d="M1095 1101h-754l-30 -228h753zM1239 1101l-145 -1101h-144l97 734h-757l-96 -734h-146l147 1101h-133l19 138h133l31 232h145l-31 -232h754l31 232h143l-30 -232h133l-18 -138h-133z" />
    <glyph glyph-name="hbar" unicode="&#x127;" horiz-adv-x="1249" 
d="M688 1116q155 0 264.5 -98t109.5 -266q0 -94 -22 -252l-68 -500h-138l68 500q21 150 21 250t-69.5 170t-177.5 70t-200.5 -52.5t-147.5 -148.5t-86 -318l-65 -471h-136l170 1240h-155l16 116h155l21 152h136l-21 -152h374l-15 -116h-375l-43 -317q168 193 384 193z" />
    <glyph glyph-name="Itilde" unicode="&#x128;" horiz-adv-x="463" 
d="M239 1471h148l-199 -1471h-148zM451 1604q-63 0 -129 34t-86 41q-20 6 -52 6q-32 -1 -64 -13q-33 -12 -99 -56l-52 102q105 97 238 97q64 1 146 -39t134 -40t155 53l57 -97q-81 -52 -133 -70t-115 -18z" />
    <glyph glyph-name="itilde" unicode="&#x129;" horiz-adv-x="410" 
d="M164 1088h133l-145 -1088h-138zM357 1307q-63 1 -129 35t-86 40t-52 6t-64 -12q-33 -12 -99 -57l-52 102q105 97 238 97q64 0 146 -40t134 -39q52 0 155 53l57 -97q-81 -52 -133 -70t-115 -18z" />
    <glyph glyph-name="Imacron" unicode="&#x12a;" horiz-adv-x="463" 
d="M239 1471h148l-199 -1471h-148zM-1 1776h690l-17 -119h-690z" />
    <glyph glyph-name="imacron" unicode="&#x12b;" horiz-adv-x="410" 
d="M163 1088h133l-145 -1088h-138zM-71 1479h690l-17 -119h-690z" />
    <glyph glyph-name="Ibreve" unicode="&#x12c;" horiz-adv-x="463" 
d="M238 1471h148l-199 -1471h-148zM330 1719q82 1 135 23t105 81h128q-34 -91 -134 -151t-248 -60t-231 60q-84 60 -96 151h132q53 -104 209 -104z" />
    <glyph glyph-name="ibreve" unicode="&#x12d;" horiz-adv-x="410" 
d="M163 1088h133l-145 -1088h-138zM267 1421q82 1 135 23t105 81h128q-35 -91 -135 -151t-246 -60q-148 0 -232 60t-96 151h132q53 -104 209 -104z" />
    <glyph glyph-name="Iogonek" unicode="&#x12e;" horiz-adv-x="463" 
d="M38 -204q0 -44 32 -72t80 -27q48 0 89 5l-21 -85q-43 -10 -86 -10q-104 0 -154 45q-50 44 -51 108q0 64 40 130t111 110h-39l199 1471h148l-199 -1471q-149 -113 -149 -204z" />
    <glyph glyph-name="iogonek" unicode="&#x12f;" horiz-adv-x="410" 
d="M3 -204q0 -44 32 -72q33 -28 81 -27q48 0 88 5l-21 -85q-43 -10 -86 -10q-105 0 -155 45q-50 44 -50 108t40 130t111 110h-29l150 1088h133l-145 -1088q-149 -113 -149 -204zM274 1536q46 0 79 -33t33 -79t-33 -80q-33 -32 -79 -32t-80 32q-32 32 -32 80q0 46 32 79
q34 33 80 33z" />
    <glyph glyph-name="Idot" unicode="&#x130;" horiz-adv-x="463" 
d="M238 1471h148l-199 -1471h-148zM355 1811q48 0 77 -29t29 -76q-1 -47 -41 -87t-88 -40q-48 1 -76 29t-29 76q0 48 40 87q40 40 88 40z" />
    <glyph glyph-name="dotlessi" unicode="&#x131;" horiz-adv-x="410" 
d="M164 1088h133l-145 -1088h-138z" />
    <glyph glyph-name="IJ" unicode="&#x132;" horiz-adv-x="1450" 
d="M791 -37q-195 0 -354 177l114 80q120 -121 243 -121q68 0 125.5 55.5t88.5 291.5l134 1025h146l-133 -1014q-25 -192 -58 -286.5t-114 -151t-192 -56.5zM238 1471h148l-199 -1471h-148z" />
    <glyph glyph-name="ij" unicode="&#x133;" horiz-adv-x="825" 
d="M342 -426q-61 0 -129 28l17 119q35 -22 71 -22q87 0 113 188l166 1201h137l-159 -1158q-33 -238 -94 -297t-122 -59zM164 1088h133l-145 -1088h-138zM690 1536q46 0 79.5 -32t33.5 -80t-33 -80t-79 -32t-79 33t-33 79t32.5 79t78.5 33zM274 1536q46 0 79 -33t33 -79
t-33 -79t-79 -33t-79 33t-33 79t33 79t79 33z" />
    <glyph glyph-name="Jcircumflex" unicode="&#x134;" horiz-adv-x="987" 
d="M333 -37q-97 1 -183 41t-175 136l113 80q125 -121 244 -121q90 0 145 82q42 62 69 265l134 1025h145l-133 -1014q-30 -229 -70 -315t-116 -132q-76 -47 -173 -47zM623 1840h139l254 -257h-180l-155 152l-205 -152h-186z" />
    <glyph glyph-name="jcircumflex" unicode="&#x135;" horiz-adv-x="416" 
d="M-69 -426q-63 0 -128 28l17 119q35 -22 71 -22q86 0 112 188l167 1201h137l-159 -1158q-33 -240 -93.5 -298t-123.5 -58zM212 1542h140l254 -257h-181l-155 152l-205 -152h-186z" />
    <glyph glyph-name="Kcedilla" unicode="&#x136;" horiz-adv-x="1210" 
d="M243 1471h145l-79 -597l689 597h211l-797 -688l690 -783h-188l-625 710l-98 -710h-144zM490 -110q138 0 138 -95q0 -71 -69 -123t-184 -52q-63 0 -138 21l32 70q56 -12 97 -12q139 0 139 70q0 38 -62 38q-26 0 -61 -7l24 80q40 10 84 10z" />
    <glyph glyph-name="kcedilla" unicode="&#x137;" horiz-adv-x="1028" 
d="M252 1508h136l-115 -823l524 403h218l-632 -486l557 -602h-186l-502 540l-73 -540h-140zM404 -110q138 0 138 -95q0 -71 -69 -123t-184 -52q-63 0 -138 21l32 70q56 -12 97 -12q139 0 139 70q0 38 -62 38q-26 0 -61 -7l24 80q40 10 84 10z" />
    <glyph glyph-name="kgreenlandic" unicode="&#x138;" horiz-adv-x="1028" 
d="M192 1088h137l-56 -403l524 403h218l-632 -486l557 -602h-186l-502 540l-73 -540h-140z" />
    <glyph glyph-name="Lacute" unicode="&#x139;" horiz-adv-x="946" 
d="M246 1471h148l-177 -1333h636l-17 -138h-784zM556 1895h215l-339 -308h-138z" />
    <glyph glyph-name="lacute" unicode="&#x13a;" horiz-adv-x="410" 
d="M225 1508h137l-210 -1508h-138zM454 1895h215l-339 -308h-138z" />
    <glyph glyph-name="Lcedilla" unicode="&#x13b;" horiz-adv-x="946" 
d="M246 1471h148l-177 -1333h636l-17 -138h-784zM394 -110q138 0 138 -95q0 -71 -69 -123t-184 -52q-63 0 -138 21l32 70q56 -12 97 -12q139 0 139 70q0 38 -62 38q-26 0 -61 -7l24 80q40 10 84 10z" />
    <glyph glyph-name="lcedilla" unicode="&#x13c;" horiz-adv-x="410" 
d="M225 1508h137l-210 -1508h-138zM70 -110q138 0 138 -95q0 -71 -69 -123t-184 -52q-63 0 -138 21l32 70q56 -12 97 -12q139 0 139 70q0 38 -62 38q-26 0 -61 -7l24 80q40 10 84 10z" />
    <glyph glyph-name="Lcaron" unicode="&#x13d;" horiz-adv-x="946" 
d="M246 1471h148l-177 -1333h636l-17 -138h-784zM556 920l-72 44q55 91 72 131t30 99h-88l38 277h177l-13 -123q-16 -156 -48 -246t-96 -182z" />
    <glyph glyph-name="lcaron" unicode="&#x13e;" horiz-adv-x="414" 
d="M453 1040l-61 37q72 114 87 196h-75l33 235h150l-11 -105q-14 -137 -42.5 -214t-80.5 -149zM225 1508h137l-210 -1508h-138z" />
    <glyph glyph-name="Ldot" unicode="&#x13f;" horiz-adv-x="946" 
d="M246 1471h148l-177 -1333h636l-17 -138h-784zM595 870q48 0 77 -28t29 -76q-1 -48 -41 -88t-88 -40t-76 29t-29 76q0 47 40 87t88 40z" />
    <glyph glyph-name="ldot" unicode="&#x140;" horiz-adv-x="540" 
d="M225 1508h137l-210 -1508h-138zM467 870q48 0 77 -28t29 -76q-1 -48 -41 -88t-88 -40t-76 29t-29 76q0 47 40 87t88 40z" />
    <glyph glyph-name="Lslash" unicode="&#x141;" horiz-adv-x="1059" 
d="M366 834l283 141l-22 -160l-282 -141l-71 -536h636l-17 -138h-784l78 595l-179 -90l22 161l179 89l94 716h148z" />
    <glyph glyph-name="lslash" unicode="&#x142;" horiz-adv-x="614" 
d="M381 914l224 127l-22 -160l-224 -127l-105 -754h-138l94 669l-200 -113l22 159l200 114l95 679h137z" />
    <glyph glyph-name="Nacute" unicode="&#x143;" horiz-adv-x="1515" 
d="M1265 1471h144l-199 -1471h-32l-828 1140l-154 -1140h-146l198 1471h32l830 -1142zM951 1895h215l-339 -308h-138z" />
    <glyph glyph-name="nacute" unicode="&#x144;" horiz-adv-x="1249" 
d="M689 1116q168 0 271 -104t103 -278q0 -70 -22 -235l-68 -499h-138l67 499q22 160 22 236q0 114 -69 184t-180 70q-111 -1 -205 -57t-147 -154q-52 -98 -80 -308l-65 -470h-137l151 1088h134l-21 -167q165 195 384 195zM820 1598h215l-339 -308h-138z" />
    <glyph glyph-name="Ncedilla" unicode="&#x145;" horiz-adv-x="1515" 
d="M1265 1471h144l-199 -1471h-32l-828 1140l-154 -1140h-146l198 1471h32l830 -1142zM642 -110q138 0 138 -95q0 -71 -69 -123t-184 -52q-63 0 -138 21l32 70q56 -12 97 -12q139 0 139 70q0 38 -62 38q-26 0 -61 -7l24 80q40 10 84 10z" />
    <glyph glyph-name="ncedilla" unicode="&#x146;" horiz-adv-x="1249" 
d="M689 1116q168 0 271 -104t103 -278q0 -70 -22 -235l-68 -499h-138l67 499q22 160 22 236q0 114 -69 184t-180 70q-111 -1 -205 -57t-147 -154q-52 -98 -80 -308l-65 -470h-137l151 1088h134l-21 -167q165 195 384 195zM503 -110q138 0 138 -95q0 -71 -69 -123t-184 -52
q-63 0 -138 21l32 70q56 -12 97 -12q139 0 139 70q0 38 -62 38q-26 0 -61 -7l24 80q40 10 84 10z" />
    <glyph glyph-name="Ncaron" unicode="&#x147;" horiz-adv-x="1515" 
d="M1265 1471h144l-199 -1471h-32l-828 1140l-154 -1140h-146l198 1471h32l830 -1142zM902 1582h-139l-254 257h180l155 -152l205 152h186z" />
    <glyph glyph-name="ncaron" unicode="&#x148;" horiz-adv-x="1249" 
d="M689 1116q168 0 271 -104t103 -278q0 -70 -22 -235l-68 -499h-138l67 499q22 160 22 236q0 114 -69 184t-180 70q-111 -1 -205 -57t-147 -154q-52 -98 -80 -308l-65 -470h-137l151 1088h134l-21 -167q165 195 384 195zM791 1285h-139l-254 257h180l155 -152l205 152h186z
" />
    <glyph glyph-name="napostrophe" unicode="&#x149;" horiz-adv-x="1249" 
d="M683 1116q168 0 271 -104t103 -278q0 -70 -22 -235l-68 -499h-138l67 499q22 160 22 236q0 114 -69 184t-180 70q-111 -1 -205 -57t-147 -154q-52 -98 -80 -308l-65 -470h-137l151 1088h134l-21 -167q165 195 384 195zM24 957l-72 44q55 91 72 131t30 99h-88l38 277h177
l-13 -123q-16 -155 -48 -245t-96 -183z" />
    <glyph glyph-name="Eng" unicode="&#x14a;" horiz-adv-x="1591" 
d="M863 1508q270 0 428 -179t158 -473q0 -353 -202.5 -623t-490.5 -270q-114 0 -194.5 39.5t-140.5 152.5l112 87q80 -140 244 -140q214 0 368.5 233t154.5 487t-128.5 400.5t-338.5 146.5q-268 0 -490 -249l-149 -1120h-146l197 1471h145l-24 -177q227 214 497 214z" />
    <glyph glyph-name="eng" unicode="&#x14b;" horiz-adv-x="1249" 
d="M706 -301q87 0 113 188l81 598q24 173 24 267t-68 165.5t-188 71.5t-217 -68t-140 -167t-68 -284l-65 -470h-137l151 1088h134l-21 -167q165 195 384 195q159 0 266.5 -99.5t107.5 -275.5q0 -86 -25 -262l-75 -549q-33 -240 -93.5 -298t-123.5 -58t-128 28l17 119
q35 -22 71 -22z" />
    <glyph glyph-name="Omacron" unicode="&#x14c;" horiz-adv-x="1780" 
d="M954 1369q-212 0 -378 -92t-262 -261q-96 -170 -96 -346t70 -304t194 -197q124 -68 306 -68q182 -1 351 95t265 266t97 366q0 261 -183 414q-152 127 -364 127zM956 1508q296 0 494 -195t198 -493q0 -363 -250 -610t-625 -247q-318 0 -509 190t-191 497q1 237 115 435
q114 199 316 311t452 112zM615 1776h690l-17 -119h-690z" />
    <glyph glyph-name="omacron" unicode="&#x14d;" horiz-adv-x="1341" 
d="M663 983q-117 0 -231 -65q-114 -64 -176 -178t-61 -268q0 -154 106 -262t274 -108q131 0 237 62t170 181q63 118 63 242q0 123 -47 211t-133 136t-202 49zM665 1116q154 0 270 -66t181 -186q65 -118 65 -278t-83 -308q-83 -146 -223 -226t-317 -80q-218 0 -360 144
t-142 365q0 174 83 321q83 146 227 230t299 84zM373 1479h690l-17 -119h-690z" />
    <glyph glyph-name="Obreve" unicode="&#x14e;" horiz-adv-x="1780" 
d="M954 1369q-212 0 -378 -92t-262 -261q-96 -170 -96 -346t70 -304t194 -197q124 -68 306 -68q182 -1 351 95t265 266t97 366q0 261 -183 414q-152 127 -364 127zM956 1508q296 0 494 -195t198 -493q0 -363 -250 -610t-625 -247q-318 0 -509 190t-191 497q1 237 115 435
q114 199 316 311t452 112zM953 1719q82 1 135 23t105 81h128q-35 -91 -135 -151t-246 -60q-148 0 -232 60t-96 151h132q53 -104 209 -104z" />
    <glyph glyph-name="obreve" unicode="&#x14f;" horiz-adv-x="1341" 
d="M663 983q-117 0 -231 -65q-114 -64 -176 -178t-61 -268q0 -154 106 -262t274 -108q131 0 237 62t170 181q63 118 63 242q0 123 -47 211t-133 136t-202 49zM665 1116q154 0 270 -66t181 -186q65 -118 65 -278t-83 -308q-83 -146 -223 -226t-317 -80q-218 0 -360 144
t-142 365q0 174 83 321q83 146 227 230t299 84zM711 1421q82 1 135 23t105 81h128q-35 -91 -135 -151t-246 -60q-148 0 -232 60t-96 151h132q53 -104 209 -104z" />
    <glyph glyph-name="Odblacute" unicode="&#x150;" horiz-adv-x="1780" 
d="M954 1369q-212 0 -378 -92t-262 -261q-96 -170 -96 -346t70 -304t194 -197q124 -68 306 -68q182 -1 351 95t265 266t97 366q0 261 -183 414q-152 127 -364 127zM956 1508q296 0 494 -195t198 -493q0 -363 -250 -610t-625 -247q-318 0 -509 190t-191 497q1 237 115 435
q114 199 316 311t452 112zM1320 1896h215l-339 -308h-138zM1004 1896h215l-339 -308h-138z" />
    <glyph glyph-name="odblacute" unicode="&#x151;" horiz-adv-x="1341" 
d="M663 983q-117 0 -231 -65q-114 -64 -176 -178t-61 -268q0 -154 106 -262t274 -108q131 0 237 62t170 181q63 118 63 242q0 123 -47 211t-133 136t-202 49zM665 1116q154 0 270 -66t181 -186q65 -118 65 -278t-83 -308q-83 -146 -223 -226t-317 -80q-218 0 -360 144
t-142 365q0 174 83 321q83 146 227 230t299 84zM1060 1598h215l-339 -308h-138zM744 1598h215l-339 -308h-138z" />
    <glyph glyph-name="OE" unicode="&#x152;" horiz-adv-x="2445" 
d="M944 1368q-155 0 -328.5 -80t-283.5 -250t-110 -401t157.5 -387.5t396.5 -156.5q189 0 360.5 98t269 266t97.5 344t-70.5 300t-202 195.5t-286.5 71.5zM78 658q0 356 248.5 603t608.5 247q425 0 618 -341l40 304h808l-18 -143h-664l-65 -482h664l-18 -141h-664l-75 -563
h664l-20 -142h-810l32 239q-264 -276 -653 -276q-343 0 -536 225q-160 188 -160 470z" />
    <glyph glyph-name="oe" unicode="&#x153;" horiz-adv-x="2329" 
d="M1668 983q-158 0 -290.5 -99.5t-168.5 -247.5h819q-2 147 -102 247t-258 100zM682 984q-204 0 -341 -141.5t-137 -360.5q0 -178 102 -279t288 -101t323.5 142.5t137.5 354.5q0 174 -104 279.5t-269 105.5zM2043 195q-177 -223 -491 -223t-458 282q-106 -150 -234 -216
t-295 -66q-227 0 -364 141.5t-137 368.5q0 169 84 319t223.5 232.5t304.5 82.5t287.5 -78t180.5 -216q203 294 532 294q216 0 351 -138.5t135 -364.5q0 -46 -8 -96h-968q-3 -38 -3 -57q0 -154 105.5 -256.5t274.5 -102.5q227 0 375 178z" />
    <glyph glyph-name="Racute" unicode="&#x154;" horiz-adv-x="1243" 
d="M510 840q188 0 246 15q96 25 156 95t60 178t-83 161q-64 41 -230 41h-252l-66 -490h169zM647 1471q197 1 282 -37t138 -120t53 -197q0 -114 -62 -216q-62 -101 -171 -153q-108 -52 -284 -52l444 -696h-167l-443 696h-116l-95 -696h-148l200 1471h369zM781 1895h215
l-339 -308h-138z" />
    <glyph glyph-name="racute" unicode="&#x155;" horiz-adv-x="616" 
d="M539 1116q71 0 135 -28l-66 -128q-52 21 -87 21q-73 0 -145 -51q-72 -50 -116 -148t-75 -321l-64 -461h-136l148 1088h139l-18 -137q56 77 135 121t150 44zM611 1598h215l-339 -308h-138z" />
    <glyph glyph-name="Rcedilla" unicode="&#x156;" horiz-adv-x="1243" 
d="M510 840q188 0 246 15q96 25 156 95t60 178t-83 161q-64 41 -230 41h-252l-66 -490h169zM647 1471q197 1 282 -37t138 -120t53 -197q0 -114 -62 -216q-62 -101 -171 -153q-108 -52 -284 -52l444 -696h-167l-443 696h-116l-95 -696h-148l200 1471h369zM493 -110
q138 0 138 -95q0 -71 -69 -123t-184 -52q-63 0 -138 21l32 70q56 -12 97 -12q139 0 139 70q0 38 -62 38q-26 0 -61 -7l24 80q40 10 84 10z" />
    <glyph glyph-name="rcedilla" unicode="&#x157;" horiz-adv-x="616" 
d="M540 1116q71 0 135 -28l-66 -128q-52 21 -87 21q-72 0 -144 -51q-72 -50 -116 -148t-76 -321l-64 -461h-136l148 1088h139l-18 -137q56 77 135 121t150 44zM174 -110q138 0 138 -95q0 -71 -69 -123t-184 -52q-63 0 -138 21l32 70q56 -12 97 -12q139 0 139 70q0 38 -62 38
q-26 0 -61 -7l24 80q40 10 84 10z" />
    <glyph glyph-name="Rcaron" unicode="&#x158;" horiz-adv-x="1243" 
d="M510 840q188 0 246 15q96 25 156 95t60 178t-83 161q-64 41 -230 41h-252l-66 -490h169zM647 1471q197 1 282 -37t138 -120t53 -197q0 -114 -62 -216q-62 -101 -171 -153q-108 -52 -284 -52l444 -696h-167l-443 696h-116l-95 -696h-148l200 1471h369zM802 1582h-139
l-254 257h180l155 -152l205 152h186z" />
    <glyph glyph-name="rcaron" unicode="&#x159;" horiz-adv-x="616" 
d="M539 1116q71 0 135 -28l-66 -128q-52 21 -87 21q-73 0 -145 -51q-72 -50 -116 -148t-75 -321l-64 -461h-136l148 1088h139l-18 -137q56 77 135 121t150 44zM492 1285h-139l-254 257h180l155 -152l205 152h186z" />
    <glyph glyph-name="Sacute" unicode="&#x15a;" horiz-adv-x="1020" 
d="M554 1365q-78 1 -130 -55t-51 -144t45 -160t176 -192q240 -217 240 -432q0 -107 -58 -206t-158 -156q-99 -57 -225 -57q-125 0 -229 90t-149 264l136 46q32 -132 104 -196q73 -64 173 -64t177 79q77 80 77 180t-44 181t-174 200q-132 119 -173 185q-67 110 -67 246
t98 236q98 98 234 98q134 0 230 -78t141 -231l-139 -35q-28 93 -92 147t-142 54zM781 1895h215l-339 -308h-138z" />
    <glyph glyph-name="sacute" unicode="&#x15b;" horiz-adv-x="795" 
d="M400 984q-72 0 -123 -47t-51 -97t30 -91q30 -40 162 -125t182 -160q49 -76 49 -175q1 -137 -95 -227t-249 -90q-202 0 -340 179l85 99q121 -147 263 -147q81 0 141 57t60 125t-37 114t-169 136q-132 89 -175 151t-43 139q0 121 91 206t230 85q83 0 149 -33t134 -117
l-76 -113q-92 131 -218 131zM620 1598h215l-339 -308h-138z" />
    <glyph glyph-name="Scircumflex" unicode="&#x15c;" horiz-adv-x="1020" 
d="M554 1365q-78 1 -130 -55t-51 -144t45 -160t176 -192q240 -217 240 -432q0 -107 -58 -206t-158 -156q-99 -57 -225 -57q-125 0 -229 90t-149 264l136 46q32 -132 104 -196q73 -64 173 -64t177 79q77 80 77 180t-44 181t-174 200q-132 119 -173 185q-67 110 -67 246
t98 236q98 98 234 98q134 0 230 -78t141 -231l-139 -35q-28 93 -92 147t-142 54zM575 1840h139l254 -257h-180l-155 152l-205 -152h-186z" />
    <glyph glyph-name="scircumflex" unicode="&#x15d;" horiz-adv-x="795" 
d="M400 984q-72 0 -123 -47t-51 -97t30 -91q30 -40 162 -125t182 -160q49 -76 49 -175q1 -137 -95 -227t-249 -90q-202 0 -340 179l85 99q121 -147 263 -147q81 0 141 57t60 125t-37 114t-169 136q-132 89 -175 151t-43 139q0 121 91 206t230 85q83 0 149 -33t134 -117
l-76 -113q-92 131 -218 131zM390 1542h139l254 -257h-180l-155 152l-205 -152h-186z" />
    <glyph glyph-name="Scedilla" unicode="&#x15e;" horiz-adv-x="1020" 
d="M554 1365q-78 1 -130 -55t-51 -144t45 -160t176 -192q240 -217 240 -432q0 -107 -58 -206t-152 -153q-93 -54 -190 -59l-24 -82q24 3 54 3t58 -26t28 -65q0 -70 -68 -122t-170 -52t-177 30l31 69q62 -20 129 -20q67 1 100 21t33 42q0 45 -56 45q-24 0 -72 -9l47 169
q-103 16 -195 96t-137 254l136 46q32 -132 104 -196q73 -64 173 -64t177 79q77 80 77 180t-44 181t-174 200q-132 119 -173 185q-67 110 -67 246t98 236q98 98 234 98q134 0 230 -78t141 -231l-139 -35q-28 93 -92 147t-142 54z" />
    <glyph glyph-name="scedilla" unicode="&#x15f;" horiz-adv-x="795" 
d="M400 984q-72 0 -123 -47t-51 -97t30 -91q30 -40 162 -125t182 -160q49 -76 49 -175q0 -137 -89 -221t-213 -94l-26 -92q23 3 53 3t58 -26t29 -65q0 -70 -68 -122q-69 -52 -171 -52t-176 30l31 69q62 -20 129 -20q67 1 100 21t33 42q0 45 -56 45q-24 0 -72 -9l49 176
q-173 18 -295 177l85 99q121 -147 263 -147q81 0 141 57t60 125t-37 114t-169 136q-132 89 -175 151t-43 139q0 121 91 206t230 85q83 0 149 -33t134 -117l-76 -113q-92 131 -218 131z" />
    <glyph glyph-name="Scaron" unicode="&#x160;" horiz-adv-x="1020" 
d="M554 1365q-78 1 -130 -55t-51 -144t45 -160t176 -192q240 -217 240 -432q0 -107 -58 -206t-158 -156q-99 -57 -225 -57q-125 0 -229 90t-149 264l136 46q32 -132 104 -196q73 -64 173 -64t177 79q77 80 77 180t-44 181t-174 200q-132 119 -173 185q-67 110 -67 246
t98 236q98 98 234 98q134 0 230 -78t141 -231l-139 -35q-28 93 -92 147t-142 54zM648 1583h-139l-254 257h180l155 -152l205 152h186z" />
    <glyph glyph-name="scaron" unicode="&#x161;" horiz-adv-x="795" 
d="M400 984q-72 0 -123 -47t-51 -97t30 -91q30 -40 162 -125t182 -160q49 -76 49 -175q1 -137 -95 -227t-249 -90q-202 0 -340 179l85 99q121 -147 263 -147q81 0 141 57t60 125t-37 114t-169 136q-132 89 -175 151t-43 139q0 121 91 206t230 85q83 0 149 -33t134 -117
l-76 -113q-92 131 -218 131zM535 1285h-139l-254 257h180l155 -152l205 152h186z" />
    <glyph glyph-name="Tcedilla" unicode="&#x162;" horiz-adv-x="872" 
d="M286 -428l-61 27q42 73 52 126h-82l22 154h156l-7 -51q-24 -167 -80 -256zM73 1471h879l-19 -140h-375l-177 -1331h-147l177 1331h-357z" />
    <glyph glyph-name="tcedilla" unicode="&#x163;" horiz-adv-x="694" 
d="M209 -428l-61 27q42 73 52 126h-82l21 154h157l-7 -51q-24 -167 -80 -256zM363 1495h137l-54 -407h216l-16 -122h-216l-132 -966h-140l131 966h-187l17 122h186z" />
    <glyph glyph-name="Tcaron" unicode="&#x164;" horiz-adv-x="872" 
d="M73 1471h879l-19 -140h-375l-177 -1331h-147l177 1331h-357zM574 1583h-139l-254 257h180l155 -152l205 152h186z" />
    <glyph glyph-name="tcaron" unicode="&#x165;" horiz-adv-x="694" 
d="M363 1495h137l-54 -407h216l-16 -122h-216l-132 -966h-140l131 966h-187l17 122h186zM613 1163l-55 26q72 89 83 154h-67l29 165h135l-10 -73q-12 -96 -34.5 -151.5t-80.5 -120.5z" />
    <glyph glyph-name="Tbar" unicode="&#x166;" horiz-adv-x="872" 
d="M319 639h-280l18 138h281l74 554h-358l19 140h879l-18 -140h-376l-74 -554h284l-18 -138h-284l-85 -639h-146z" />
    <glyph glyph-name="tbar" unicode="&#x167;" horiz-adv-x="694" 
d="M381 607h247l-16 -116h-247l-67 -491h-140l67 491h-215l15 116h215l49 359h-187l17 122h186l58 407h137l-54 -407h216l-16 -122h-216z" />
    <glyph glyph-name="Utilde" unicode="&#x168;" horiz-adv-x="1341" 
d="M245 390q0 -138 79 -212t223 -75q199 0 311 133q54 66 86 182t61 342l92 711h145l-122 -925q-41 -251 -126 -375q-142 -208 -444 -208q-217 0 -335 110t-118 292q0 51 6 114l130 992h145l-111 -842q-22 -168 -22 -239zM876 1604q-62 0 -128 34t-86 41q-20 6 -52 6
q-32 -1 -65 -13t-99 -56l-52 102q105 97 238 97q64 1 146 -39t134 -40t155 53l57 -97q-80 -52 -132 -70t-116 -18z" />
    <glyph glyph-name="utilde" unicode="&#x169;" horiz-adv-x="1245" 
d="M239 385q-1 -125 83 -204t210 -79t209 60q84 60 120 157q18 49 43 225l78 544h137l-56 -412q-40 -296 -85 -420q-44 -124 -160 -204t-294 -80t-298 116t-120 288q0 69 11 161l10 96l61 455h140l-63 -455q-26 -193 -26 -248zM807 1307q-63 1 -129 35t-86 40t-52 6t-64 -12
q-33 -12 -99 -57l-52 102q105 97 238 97q64 0 146 -40t134 -39q52 0 155 53l57 -97q-81 -52 -133 -70t-115 -18z" />
    <glyph glyph-name="Umacron" unicode="&#x16a;" horiz-adv-x="1341" 
d="M245 390q0 -138 79 -212t223 -75q199 0 311 133q54 66 86 182t61 342l92 711h145l-122 -925q-41 -251 -126 -375q-142 -208 -444 -208q-217 0 -335 110t-118 292q0 51 6 114l130 992h145l-111 -842q-22 -168 -22 -239zM424 1776h690l-17 -119h-690z" />
    <glyph glyph-name="umacron" unicode="&#x16b;" horiz-adv-x="1245" 
d="M239 385q-1 -125 83 -204t210 -79t209 60q84 60 120 157q18 49 43 225l78 544h137l-56 -412q-40 -296 -85 -420q-44 -124 -160 -204t-294 -80t-298 116t-120 288q0 69 11 161l10 96l61 455h140l-63 -455q-26 -193 -26 -248zM367 1479h690l-17 -119h-690z" />
    <glyph glyph-name="Ubreve" unicode="&#x16c;" horiz-adv-x="1341" 
d="M245 390q0 -138 79 -212t223 -75q199 0 311 133q54 66 86 182t61 342l92 711h145l-122 -925q-41 -251 -126 -375q-142 -208 -444 -208q-217 0 -335 110t-118 292q0 51 6 114l130 992h145l-111 -842q-22 -168 -22 -239zM762 1719q82 1 135 23t105 81h128
q-34 -91 -134 -151t-248 -60t-231 60q-84 60 -96 151h132q53 -104 209 -104z" />
    <glyph glyph-name="ubreve" unicode="&#x16d;" horiz-adv-x="1245" 
d="M239 385q-1 -125 83 -204t210 -79t209 60q84 60 120 157q18 49 43 225l78 544h137l-56 -412q-40 -296 -85 -420q-44 -124 -160 -204t-294 -80t-298 116t-120 288q0 69 11 161l10 96l61 455h140l-63 -455q-26 -193 -26 -248zM705 1421q82 1 135 23t105 81h128
q-35 -91 -135 -151t-246 -60q-148 0 -232 60t-96 151h132q53 -104 209 -104z" />
    <glyph glyph-name="Uring" unicode="&#x16e;" horiz-adv-x="1341" 
d="M245 390q0 -138 79 -212t223 -75q199 0 311 133q54 66 86 182t61 342l92 711h145l-122 -925q-41 -251 -126 -375q-142 -208 -444 -208q-217 0 -335 110t-118 292q0 51 6 114l130 992h145l-111 -842q-22 -168 -22 -239zM744 1888q-46 0 -83 -38q-38 -38 -38 -83t27 -72
t73 -27t84 38t38 83q1 45 -27 72t-74 27zM756 1989q88 -1 142 -53q53 -52 53 -140q-1 -88 -75 -160q-74 -74 -162 -74t-142 53q-52 53 -52 140t74 161t162 73z" />
    <glyph glyph-name="uring" unicode="&#x16f;" horiz-adv-x="1245" 
d="M239 385q-1 -125 83 -204t210 -79t209 60q84 60 120 157q18 49 43 225l78 544h137l-56 -412q-40 -296 -85 -420q-44 -124 -160 -204t-294 -80t-298 116t-120 288q0 69 11 161l10 96l61 455h140l-63 -455q-26 -193 -26 -248zM694 1590q-46 0 -83 -38q-38 -38 -38 -83
t27 -72t73 -27t84 38t38 83q1 45 -27 72t-74 27zM706 1691q88 -1 142 -53q53 -52 53 -140q-1 -88 -75 -160q-74 -74 -162 -74t-142 53q-52 53 -52 140t74 161t162 73z" />
    <glyph glyph-name="Udblacute" unicode="&#x170;" horiz-adv-x="1341" 
d="M245 390q0 -138 79 -212t223 -75q199 0 311 133q54 66 86 182t61 342l92 711h145l-122 -925q-41 -251 -126 -375q-142 -208 -444 -208q-217 0 -335 110t-118 292q0 51 6 114l130 992h145l-111 -842q-22 -168 -22 -239zM1060 1896h215l-339 -308h-138zM744 1896h215
l-339 -308h-138z" />
    <glyph glyph-name="udblacute" unicode="&#x171;" horiz-adv-x="1245" 
d="M239 385q-1 -125 83 -204t210 -79t209 60q84 60 120 157q18 49 43 225l78 544h137l-56 -412q-40 -296 -85 -420q-44 -124 -160 -204t-294 -80t-298 116t-120 288q0 69 11 161l10 96l61 455h140l-63 -455q-26 -193 -26 -248zM1062 1598h215l-339 -308h-138zM746 1598h215
l-339 -308h-138z" />
    <glyph glyph-name="Uogonek" unicode="&#x172;" horiz-adv-x="1341" 
d="M245 390q0 -138 79 -212t223 -75q199 0 311 133q54 66 86 182t61 342l92 711h145l-122 -925q-41 -251 -126 -375q-117 -172 -344 -202q-111 -95 -111 -173q0 -44 32 -72q33 -28 81 -27q48 0 88 5l-21 -85q-43 -10 -86 -10q-105 0 -155 45q-50 44 -50 108t32 117t70 86
q-202 5 -318 113q-115 107 -115 289q0 51 6 114l130 992h145l-111 -842q-22 -168 -22 -239z" />
    <glyph glyph-name="uogonek" unicode="&#x173;" horiz-adv-x="1245" 
d="M239 385q-1 -125 83 -204t210 -79t209 60q84 60 120 157q18 49 43 225l78 544h137l-56 -412q-40 -296 -85 -420q-44 -124 -160 -204q-84 -58 -196 -74q-121 -100 -121 -182q0 -44 32 -72q33 -28 81 -27q48 0 88 5l-21 -85q-43 -10 -86 -10q-105 0 -155 45q-50 44 -50 108
t34 120t79 93q-167 9 -282 120q-115 110 -115 283q0 69 11 161l10 96l61 455h140l-63 -455q-26 -193 -26 -248z" />
    <glyph glyph-name="Wcircumflex" unicode="&#x174;" horiz-adv-x="1966" 
d="M126 1471h143l204 -1093l569 1093h28l257 -1093l520 1093h155l-702 -1471h-27l-259 1108l-586 -1108h-27zM1031 1840h139l254 -257h-180l-155 152l-205 -152h-186z" />
    <glyph glyph-name="wcircumflex" unicode="&#x175;" horiz-adv-x="1702" 
d="M70 1088h139l224 -768l409 768h24l248 -776l400 776h150l-562 -1088h-28l-252 768l-409 -768h-26zM834 1542h139l254 -257h-180l-155 152l-205 -152h-186z" />
    <glyph glyph-name="Ycircumflex" unicode="&#x176;" horiz-adv-x="1212" 
d="M83 1471h154l315 -668l531 668h178l-652 -819l-89 -652h-144l89 660zM639 1840h139l254 -257h-180l-155 152l-205 -152h-186z" />
    <glyph glyph-name="ycircumflex" unicode="&#x177;" horiz-adv-x="1098" 
d="M47 1088h144l282 -803l466 803h155l-862 -1486h-157l308 531zM538 1542h139l254 -257h-180l-155 152l-205 -152h-186z" />
    <glyph glyph-name="Ydieresis" unicode="&#x178;" horiz-adv-x="1212" 
d="M83 1471h154l315 -668l531 668h178l-652 -819l-89 -652h-144l89 660zM910 1816q48 0 78 -29q28 -29 28 -76t-40 -87t-89 -40t-77 28t-28 76t40 88t88 40zM502 1816q48 0 77 -29t29 -76t-40 -87t-89 -40t-77 28t-28 76t40 88t88 40z" />
    <glyph glyph-name="Zacute" unicode="&#x179;" horiz-adv-x="983" 
d="M217 1471h756l-722 -1331h551l-19 -140h-770l725 1329h-540zM731 1895h215l-339 -308h-138z" />
    <glyph glyph-name="zacute" unicode="&#x17a;" horiz-adv-x="870" 
d="M92 1088h748l-650 -964h591l-16 -124h-822l653 965h-520zM631 1598h215l-339 -308h-138z" />
    <glyph glyph-name="Zdot" unicode="&#x17b;" horiz-adv-x="983" 
d="M217 1471h756l-722 -1331h551l-19 -140h-770l725 1329h-540zM558 1815q48 0 77 -29t29 -76t-40 -87t-89 -40q-49 1 -77 29t-28 76t40 87q40 40 88 40z" />
    <glyph glyph-name="zdot" unicode="&#x17c;" horiz-adv-x="870" 
d="M92 1088h748l-650 -964h591l-16 -124h-822l653 965h-520zM428 1518q48 0 77 -29t29 -76t-40 -87t-89 -40t-77 28t-28 76t40 88t88 40z" />
    <glyph glyph-name="Zcaron" unicode="&#x17d;" horiz-adv-x="983" 
d="M217 1471h756l-722 -1331h551l-19 -140h-770l725 1329h-540zM629 1583h-139l-254 257h180l155 -152l205 152h186z" />
    <glyph glyph-name="zcaron" unicode="&#x17e;" horiz-adv-x="870" 
d="M92 1088h748l-650 -964h591l-16 -124h-822l653 965h-520zM574 1285h-139l-254 257h180l155 -152l205 152h186z" />
    <glyph glyph-name="longs" unicode="&#x17f;" horiz-adv-x="410" 
d="M437 1411q-33 0 -66 -33t-52 -174l-168 -1204h-137l166 1184q21 146 41.5 204.5t76 103t137.5 44.5t163 -65l-19 -132q-74 72 -142 72z" />
    <glyph glyph-name="florin" unicode="&#x192;" horiz-adv-x="1135" 
d="M152 -426q-70 0 -144 49l18 124q54 -45 118 -45t115.5 73t83.5 296l101 689h-141l17 122h141l49 319q28 184 65 239q65 96 157 96t186 -65l-18 -133q-76 73 -132 73t-82.5 -45.5t-46.5 -189.5l-42 -294h231l-17 -122h-233l-107 -710q-29 -196 -74 -291t-110 -140
t-135 -45z" />
    <glyph glyph-name="Aringacute" unicode="&#x1fa;" horiz-adv-x="1515" 
d="M805 1163l-314 -542h496zM876 1729q-46 0 -84 -38t-38 -83t27 -72t73 -27t84 38t38 83t-28 72q-26 27 -72 27zM888 1830q88 0 141 -52t53 -140t-67 -154t-141 -78l471 -1406h-151l-161 481h-623l-275 -481h-164l812 1409q-45 12 -89 56q-43 44 -43 131q0 86 74 160
q75 74 163 74zM956 2170h215l-339 -308h-138z" />
    <glyph glyph-name="aringacute" unicode="&#x1fb;" horiz-adv-x="1399" 
d="M565 100q153 0 264 64t176 182q65 120 65 274t-107 260t-293 106t-329 -145t-143 -356q0 -173 107 -279t260 -106zM693 1116q262 0 403 -235l25 207h145l-145 -1088h-141l21 164q-189 -192 -422 -192t-376 143t-143 368q0 261 186 447t447 186zM778 1546q-46 0 -83 -38
q-38 -38 -38 -83t27 -72t73 -27t84 38t38 83q1 45 -27 72t-74 27zM790 1647q88 -1 142 -53q53 -52 53 -140q-1 -88 -75 -160q-74 -74 -162 -74t-142 53q-52 53 -52 140t74 161t162 73zM884 2030h215l-339 -308h-138z" />
    <glyph glyph-name="AEacute" unicode="&#x1fc;" horiz-adv-x="2032" 
d="M1092 1344l-519 -723h423zM1743 0h-832l65 478h-504l-346 -478h-159l1059 1471h895l-21 -143h-661l-65 -482h661l-19 -141h-662l-75 -564h680zM1428 1895h215l-339 -308h-138z" />
    <glyph glyph-name="aeacute" unicode="&#x1fd;" horiz-adv-x="2370" 
d="M1712 985q-170 1 -294 -93t-173 -257h836q-5 149 -103 249q-96 100 -266 101zM195 495q0 -181 109 -287t289 -106q133 0 247 64t180 180t65 234q0 116 -53 211q-109 196 -343 196t-374 -169q-120 -143 -120 -323zM1706 1116q223 0 365 -140t142 -364q0 -45 -8 -96h-985
l-3 -47q0 -98 51 -186q105 -182 336 -182t384 174l107 -79q-180 -224 -498 -224q-156 0 -262 56t-180 172l-27 -200h-124l21 170q-196 -198 -441 -198q-246 0 -386 146t-140 388t184 426t437 184q160 0 275 -70q86 -53 165 -177l30 219h125l-22 -178q182 206 454 206z
M1332 1598h215l-339 -308h-138z" />
    <glyph glyph-name="Oslashacute" unicode="&#x1fe;" horiz-adv-x="1778" 
d="M787 102q181 0 351 96t266 264q96 170 96 377t-133 356l-894 -1021q132 -72 314 -72zM934 1370q-194 0 -360 -94t-262 -262q-95 -168 -95 -357q0 -118 40 -223t110 -179l898 1027q-137 88 -331 88zM1647 821q-1 -361 -251 -609t-622 -248q-233 0 -398 100l-132 -151
l-98 88l126 144q-200 194 -200 506q0 236 114 433t316 311t439 114t418 -121l121 139l102 -87l-121 -138q186 -191 186 -481zM1086 1895h215l-339 -308h-138z" />
    <glyph glyph-name="oslashacute" unicode="&#x1ff;" horiz-adv-x="1337" 
d="M588 102q116 0 222 62t170 181q63 118 63 249t-63 233l-594 -682q86 -43 202 -43zM667 983q-124 0 -238 -66t-175 -179q-61 -114 -61 -258t89 -252l604 694q-95 61 -219 61zM1179 606q-1 -182 -83 -328t-222 -226t-307 -80q-166 0 -274 66l-129 -149l-101 87l127 146
q-136 146 -136 359q0 173 82 319t227 232q145 84 315 84t297 -92l121 139l103 -84l-128 -148q108 -143 108 -325zM866 1598h215l-339 -308h-138z" />
    <glyph glyph-name="circumflex" unicode="&#x2c6;" horiz-adv-x="1028" 
d="M556 1542h139l254 -257h-180l-155 152l-205 -152h-186z" />
    <glyph glyph-name="caron" unicode="&#x2c7;" horiz-adv-x="1028" 
d="M652 1285h-139l-254 257h180l155 -152l205 152h186z" />
    <glyph glyph-name="macron" unicode="&#x2c9;" horiz-adv-x="993" 
d="M251 1479h690l-17 -119h-690z" />
    <glyph glyph-name="breve" unicode="&#x2d8;" horiz-adv-x="928" 
d="M556 1421q82 0 135 22.5t105 81.5h128q-35 -90 -134.5 -150.5t-247.5 -60.5t-231.5 60t-95.5 151h132q53 -104 209 -104z" />
    <glyph glyph-name="dotaccent" unicode="&#x2d9;" horiz-adv-x="455" 
d="M328 1518q48 0 77 -29t29 -76t-40.5 -87t-88.5 -40t-76.5 28t-28.5 76t40 88t88 40z" />
    <glyph glyph-name="ring" unicode="&#x2da;" horiz-adv-x="680" 
d="M450 1590q-46 0 -83.5 -38t-37.5 -83t27 -72t73 -27t84 38t38 83t-27.5 72t-73.5 27zM462 1691q88 0 141.5 -52.5t53.5 -140.5t-74.5 -161t-162.5 -73t-141 53t-53 140t74 160.5t162 73.5z" />
    <glyph glyph-name="ogonek" unicode="&#x2db;" horiz-adv-x="618" 
d="M271 -204q0 -44 32.5 -71.5t80.5 -27.5t88 5l-21 -85q-43 -10 -86 -10q-104 0 -154.5 44.5t-50.5 108.5t40 129.5t111 110.5h109q-149 -113 -149 -204z" />
    <glyph glyph-name="tilde" unicode="&#x2dc;" horiz-adv-x="899" 
d="M644 1307q-62 1 -128 35t-86 40t-52 6t-65 -12.5t-99 -56.5l-52 102q105 97 238 97q64 0 146 -40t134 -39q52 0 155 53l57 -97q-80 -52 -132.5 -70t-115.5 -18z" />
    <glyph glyph-name="hungarumlaut" unicode="&#x2dd;" horiz-adv-x="1130" 
d="M908 1598h215l-339 -308h-138zM592 1598h215l-339 -308h-138z" />
    <glyph glyph-name="tonos" unicode="&#x384;" horiz-adv-x="774" 
d="M541 1598l-73 -338h-118l16 338h175z" />
    <glyph glyph-name="dieresistonos" unicode="&#x385;" horiz-adv-x="774" 
d="M167 1291q-78 0 -78 76q0 42 31.5 72t70.5 30q78 0 78 -76q0 -41 -31 -71.5t-71 -30.5zM659 1291q-78 0 -78 76q1 42 31.5 72t70.5 30q77 0 77 -76q0 -41 -30.5 -71.5t-70.5 -30.5zM541 1598l-73 -338h-118l16 338h175z" />
    <glyph glyph-name="Alphatonos" unicode="&#x386;" horiz-adv-x="1515" 
d="M805 1163l-314 -542h496zM852 1471l493 -1471h-151l-161 481h-623l-275 -481h-164l847 1471h34zM479 1508l-73 -338h-118l16 338h175z" />
    <glyph glyph-name="anoteleia" unicode="&#x387;" horiz-adv-x="567" 
d="M427 994q0 -52 -35.5 -87t-87.5 -35t-86.5 35t-34.5 86t35.5 87t86.5 36t86.5 -35t35.5 -87z" />
    <glyph glyph-name="Epsilontonos" unicode="&#x388;" horiz-adv-x="1188" 
d="M1146 1471l-21 -143h-662l-65 -482h662l-19 -141h-662l-75 -564h662l-17 -141h-811l197 1471h811zM130 1508l-73 -338h-118l16 338h175z" />
    <glyph glyph-name="Etatonos" unicode="&#x389;" horiz-adv-x="1489" 
d="M335 1471h145l-79 -598h753l80 598h143l-193 -1471h-144l97 734h-757l-96 -734h-146zM130 1508l-73 -338h-118l16 338h175z" />
    <glyph glyph-name="Iotatonos" unicode="&#x38a;" horiz-adv-x="553" 
d="M328 1471h148l-199 -1471h-148zM130 1508l-73 -338h-118l16 338h175z" />
    <glyph glyph-name="Omicrontonos" unicode="&#x38c;" horiz-adv-x="1780" 
d="M954 1369q-212 0 -378 -92t-262 -261q-96 -170 -96 -346t70 -304t194 -197q124 -68 306 -68q182 -1 351 95t265 266t97 366q0 261 -183 414q-152 127 -364 127zM956 1508q296 0 494 -195t198 -493q0 -363 -250 -610t-625 -247q-318 0 -509 190t-191 497q1 237 115 435
q114 199 316 311t452 112zM130 1508l-73 -338h-118l16 338h175z" />
    <glyph glyph-name="Upsilontonos" unicode="&#x38e;" horiz-adv-x="1322" 
d="M193 1471h154l315 -668l531 668h178l-652 -819l-89 -652h-144l89 660zM130 1508l-73 -338h-118l16 338h175z" />
    <glyph glyph-name="Omegatonos" unicode="&#x38f;" horiz-adv-x="1713" 
d="M910 1368q-280 0 -469 -185t-190 -451q0 -130 65 -244t309 -292l-26 -196h-551l18 138h423q-384 264 -384 590t232 552t592 227q289 -1 465 -165t176 -420q0 -523 -585 -784h440l-18 -138h-571l26 196q560 289 560 711q2 213 -140 337t-372 124zM129 1508l-73 -338h-118
l16 338h175z" />
    <glyph glyph-name="iotadieresistonos" unicode="&#x390;" horiz-adv-x="410" 
d="M165 1088h133l-145 -1088h-138zM3 1291q-78 0 -78 76q-1 42 31 72t71 30q78 0 78 -76q0 -41 -31 -71t-71 -31zM495 1291q-78 0 -78 76q1 42 31 72t71 30q77 0 77 -76q0 -41 -30 -71t-71 -31zM377 1598l-73 -338h-118l16 338h175z" />
    <glyph glyph-name="Alpha" unicode="&#x391;" horiz-adv-x="1515" 
d="M805 1163l-314 -542h496zM852 1471l493 -1471h-151l-161 481h-623l-275 -481h-164l847 1471h34z" />
    <glyph glyph-name="Beta" unicode="&#x392;" horiz-adv-x="1176" 
d="M414 139q208 0 302 21q94 20 150 86t57 164q0 98 -46 158q-46 62 -151 96t-314 35h-123l-74 -560h199zM407 839q201 0 289 32q88 33 137 101t49 164t-76 146q-76 52 -326 52q-43 0 -107 -3l-66 -488q43 -4 100 -4zM435 1471q278 1 376 -33q99 -34 159 -117t60 -199
t-64 -208q-64 -93 -172 -134q130 -40 204 -136t74 -230t-64 -231t-170 -140q-107 -43 -369 -43h-419l196 1471h189z" />
    <glyph glyph-name="Gamma" unicode="&#x393;" horiz-adv-x="946" 
d="M962 1331h-591l-177 -1331h-146l196 1471h737z" />
    <glyph glyph-name="Delta" unicode="&#x394;" horiz-adv-x="1515" 
d="M1137 140l-344 1024l-619 -1024h963zM1337 0h-1417l891 1471h36z" />
    <glyph glyph-name="Epsilon" unicode="&#x395;" horiz-adv-x="1098" 
d="M1056 1471l-21 -143h-662l-65 -482h662l-19 -141h-662l-75 -564h662l-17 -141h-811l197 1471h811z" />
    <glyph glyph-name="Zeta" unicode="&#x396;" horiz-adv-x="983" 
d="M217 1471h756l-722 -1331h551l-19 -140h-770l725 1329h-540z" />
    <glyph glyph-name="Eta" unicode="&#x397;" horiz-adv-x="1399" 
d="M245 1471h145l-79 -598h753l80 598h143l-193 -1471h-144l97 734h-757l-96 -734h-146z" />
    <glyph glyph-name="Theta" unicode="&#x398;" horiz-adv-x="1780" 
d="M1217 674h-737l19 140h737zM218 656q0 -241 148 -398t406 -157q308 0 518.5 210t210.5 517q0 243 -158.5 392t-389.5 149q-339 0 -537 -213t-198 -500zM1648 820q0 -368 -251 -612.5t-624 -244.5q-315 0 -507.5 187.5t-192.5 499.5q0 363 251.5 610.5t631.5 247.5
q300 0 496 -195t196 -493z" />
    <glyph glyph-name="Iota" unicode="&#x399;" horiz-adv-x="463" 
d="M238 1471h148l-199 -1471h-148z" />
    <glyph glyph-name="Kappa" unicode="&#x39a;" horiz-adv-x="1210" 
d="M243 1471h145l-79 -597l689 597h211l-797 -688l690 -783h-188l-625 710l-98 -710h-144z" />
    <glyph glyph-name="Lambda" unicode="&#x39b;" horiz-adv-x="1438" 
d="M1266 0h-148l-365 1165l-683 -1165h-163l862 1471h34z" />
    <glyph glyph-name="Mu" unicode="&#x39c;" horiz-adv-x="1882" 
d="M1642 1471v-1471h-138v1014l-638 -1014h-37l-381 1050l-302 -1050h-149l425 1471h24l430 -1195l743 1195h23z" />
    <glyph glyph-name="Nu" unicode="&#x39d;" horiz-adv-x="1515" 
d="M1265 1471h144l-199 -1471h-32l-828 1140l-154 -1140h-146l198 1471h32l830 -1142z" />
    <glyph glyph-name="Xi" unicode="&#x39e;" horiz-adv-x="1087" 
d="M843 0h-857l18 140h857zM939 724h-857l19 140h857zM1020 1331h-857l19 140h857z" />
    <glyph glyph-name="Omicron" unicode="&#x39f;" horiz-adv-x="1780" 
d="M954 1369q-212 0 -378 -92t-262 -261q-96 -170 -96 -346t70 -304t194 -197q124 -68 306 -68q182 -1 351 95t265 266t97 366q0 261 -183 414q-152 127 -364 127zM956 1508q296 0 494 -195t198 -493q0 -363 -250 -610t-625 -247q-318 0 -509 190t-191 497q1 237 115 435
q114 199 316 311t452 112z" />
    <glyph glyph-name="Pi" unicode="&#x3a0;" horiz-adv-x="1399" 
d="M1092 0h-145l177 1331h-754l-177 -1331h-145l196 1471h1044z" />
    <glyph glyph-name="Rho" unicode="&#x3a1;" horiz-adv-x="1212" 
d="M529 840q207 0 287 28t128 98t48 148t-33 126q-33 49 -91 69t-213 20h-263l-68 -489h205zM663 1471q199 0 285 -37q86 -36 139 -118q52 -82 52 -210t-82 -236t-207 -146q-91 -29 -321 -29h-223l-94 -695h-147l197 1471h401z" />
    <glyph glyph-name="Sigma" unicode="&#x3a3;" horiz-adv-x="1027" 
d="M798 0h-861l509 734l-307 737h840l-19 -142h-606l254 -608l-397 -578h606z" />
    <glyph glyph-name="Tau" unicode="&#x3a4;" horiz-adv-x="872" 
d="M73 1471h879l-19 -140h-375l-177 -1331h-147l177 1331h-357z" />
    <glyph glyph-name="Upsilon" unicode="&#x3a5;" horiz-adv-x="1212" 
d="M83 1471h154l315 -668l531 668h178l-652 -819l-89 -652h-144l89 660z" />
    <glyph glyph-name="Phi" unicode="&#x3a6;" horiz-adv-x="1760" 
d="M1486 809q0 366 -502 400l-124 -927q626 39 626 527zM214 680q0 -365 502 -398l124 927q-626 -39 -626 -529zM66 670q0 309 213 484t579 191l17 126h144l-17 -126q292 -20 462.5 -159.5t170.5 -366.5q0 -311 -211.5 -485.5t-581.5 -188.5l-19 -145h-144l19 145
q-291 20 -461.5 159t-170.5 366z" />
    <glyph glyph-name="Chi" unicode="&#x3a7;" horiz-adv-x="1247" 
d="M217 1471h156l260 -572l433 572h172l-540 -713l348 -758h-155l-288 627l-476 -627h-173l584 771z" />
    <glyph glyph-name="Psi" unicode="&#x3a8;" horiz-adv-x="1620" 
d="M128 808q0 69 13 167l66 496h147l-60 -448q-15 -117 -15 -186q0 -155 89 -236.5t308 -99.5l129 970h144l-129 -970q129 2 301 82t219 440l60 448h147l-68 -507q-27 -205 -85.5 -310t-201.5 -193.5t-391 -101.5l-48 -359h-144l48 359q-529 31 -529 449z" />
    <glyph glyph-name="Omega" unicode="&#x3a9;" horiz-adv-x="1713" 
d="M910 1368q-280 0 -469 -185t-190 -451q0 -129 65 -243.5t309 -292.5l-26 -196h-551l18 138h423q-384 264 -384 590t232 552.5t592 226.5q288 0 464.5 -164.5t176.5 -420.5q0 -523 -585 -784h440l-18 -138h-571l26 196q560 289 560 711q1 213 -140.5 337t-371.5 124z" />
    <glyph glyph-name="Iotadieresis" unicode="&#x3aa;" horiz-adv-x="463" 
d="M238 1471h148l-199 -1471h-148zM572 1816q48 0 78 -29q28 -29 28 -76t-40 -87t-89 -40t-77 28t-28 76t40 88t88 40zM164 1816q48 0 77 -29t29 -76t-40 -87t-89 -40t-77 28t-28 76t40 88t88 40z" />
    <glyph glyph-name="Upsilondieresis" unicode="&#x3ab;" horiz-adv-x="1212" 
d="M83 1471h154l315 -668l531 668h178l-652 -819l-89 -652h-144l89 660zM910 1816q48 0 78 -29q28 -29 28 -76t-40 -87t-89 -40t-77 28t-28 76t40 88t88 40zM502 1816q48 0 77 -29t29 -76t-40 -87t-89 -40t-77 28t-28 76t40 88t88 40z" />
    <glyph glyph-name="alphatonos" unicode="&#x3ac;" horiz-adv-x="1399" 
d="M565 100q153 0 264 64t176 182q65 120 65 274t-107 260t-293 106t-329 -145t-143 -356q0 -173 107 -279t260 -106zM693 1116q262 0 403 -235l25 207h145l-145 -1088h-141l21 164q-189 -192 -422 -192t-376 143t-143 368q0 261 186 447t447 186zM870 1598l-73 -338h-118
l16 338h175z" />
    <glyph glyph-name="epsilontonos" unicode="&#x3ad;" horiz-adv-x="866" 
d="M335 -29q-141 0 -231 81t-90 211q0 237 230 332q-117 70 -117 201q-1 130 103 226t264 96t290 -123l-92 -97q-102 88 -208 88t-165 -60q-58 -60 -58 -134q-1 -76 45 -119t120 -43h73l-16 -120h-86q-95 0 -167 -66t-72 -172q0 -170 206 -170q158 0 274 114l75 -100
q-155 -145 -378 -145zM604 1598l-73 -338h-118l16 338h175z" />
    <glyph glyph-name="etatonos" unicode="&#x3ae;" horiz-adv-x="1249" 
d="M689 1116q170 0 272 -104t102 -278q0 -72 -22 -235l-121 -897h-138l120 897q22 164 22 236q0 114 -68 184t-191 70t-249 -94t-173 -425l-65 -470h-137l151 1088h134l-21 -167q165 195 384 195zM795 1598l-73 -338h-118l16 338h175z" />
    <glyph glyph-name="iotatonos" unicode="&#x3af;" horiz-adv-x="410" 
d="M164 1088h133l-145 -1088h-138zM379 1598l-73 -338h-118l16 338h175z" />
    <glyph glyph-name="upsilondieresistonos" unicode="&#x3b0;" horiz-adv-x="1219" 
d="M209 400q0 -297 290 -297q193 -1 307 143t114 370t-193 380l88 121q246 -205 246 -491t-156 -470t-426 -184q-409 0 -409 407q0 76 14 185l70 524h138l-68 -508q-15 -113 -15 -180zM407 1291q-78 0 -78 76q-1 42 31 72t71 30q78 0 78 -76q0 -41 -31 -71t-71 -31z
M899 1291q-78 0 -78 76q1 42 31 72t71 30q77 0 77 -76q0 -41 -30 -71t-71 -31zM781 1598l-73 -338h-118l16 338h175z" />
    <glyph glyph-name="alpha" unicode="&#x3b1;" horiz-adv-x="1399" 
d="M565 100q153 0 264 64t176 182q65 120 65 274t-107 260t-293 106t-329 -145t-143 -356q0 -173 107 -279t260 -106zM693 1116q262 0 403 -235l25 207h145l-145 -1088h-141l21 164q-189 -192 -422 -192t-376 143t-143 368q0 261 186 447t447 186z" />
    <glyph glyph-name="beta" unicode="&#x3b2;" horiz-adv-x="1221" 
d="M805 1213q0 89 -48 141t-132 52q-138 0 -214 -77t-100 -255l-78 -584q-4 -26 -4 -50q0 -140 88 -240t245 -100t250.5 99t93.5 280q0 326 -423 326h-70l16 117q169 4 272.5 81.5t103.5 209.5zM622 1536q150 0 238.5 -82.5t88.5 -218.5q0 -255 -260 -335
q158 -16 258.5 -134.5t100.5 -284.5q0 -237 -139 -373t-369 -136t-346 225l-79 -595h-141l200 1505q28 206 143 317.5t305 111.5z" />
    <glyph glyph-name="gamma" unicode="&#x3b3;" horiz-adv-x="1135" 
d="M517 104l-67 -502h-138l71 535l-327 951h143l275 -796l458 796h152z" />
    <glyph glyph-name="delta" unicode="&#x3b4;" horiz-adv-x="1171" 
d="M570 806q-142 0 -258.5 -122t-116.5 -266t83 -228.5t213 -84.5q179 0 284 120t105 281q1 124 -83.5 212t-226.5 88zM328 1158q0 156 132 267t321 111q126 0 234 -28l-53 -125q-80 22 -200 22t-205 -64.5t-85 -176.5q0 -71 51.5 -123t220.5 -124q280 -118 280 -392
q0 -225 -156 -389t-395 -164q-179 0 -300 122t-121 294t103.5 312t301.5 206q-129 96 -129 252z" />
    <glyph glyph-name="epsilon" unicode="&#x3b5;" horiz-adv-x="866" 
d="M356 -29q-141 0 -231 81t-90 211q0 237 230 332q-117 70 -117 201t103.5 226.5t263.5 95.5t290 -123l-92 -97q-103 88 -209 88t-164 -59t-58 -135t45.5 -119t119.5 -43h73l-16 -120h-86q-94 0 -166.5 -66t-72.5 -172q0 -170 206 -170q158 0 274 114l75 -100
q-155 -145 -378 -145z" />
    <glyph glyph-name="zeta" unicode="&#x3b6;" horiz-adv-x="953" 
d="M374 -296q270 0 270 168q0 54 -49.5 87t-193.5 61q-351 70 -351 397q0 231 169 457.5t573 510.5h-503l17 123h674l-16 -123q-386 -290 -579.5 -505t-194.5 -452q0 -118 62 -185t234 -103t237 -93.5t65 -148.5q0 -144 -101 -234t-320 -90q-87 0 -162 20l53 126
q61 -16 116 -16z" />
    <glyph glyph-name="eta" unicode="&#x3b7;" horiz-adv-x="1249" 
d="M689 1116q170 0 272 -104t102 -278q0 -72 -22 -235l-121 -897h-138l120 897q22 164 22 236q0 114 -68 184t-191 70t-249.5 -94t-172.5 -425l-65 -470h-137l151 1088h134l-21 -167q165 195 384 195z" />
    <glyph glyph-name="theta" unicode="&#x3b8;" horiz-adv-x="1341" 
d="M201 570q0 -470 354 -470q195 0 326.5 157t179.5 436h-854q-6 -64 -6 -123zM1082 922q0 233 -90 359.5t-271 126.5t-314 -160.5t-183 -431.5h853q5 55 5 106zM538 -28q-228 0 -351.5 161t-123.5 441q0 383 182.5 672.5t501.5 289.5q243 0 358 -172.5t115 -433.5
q0 -386 -181 -672t-501 -286z" />
    <glyph glyph-name="iota" unicode="&#x3b9;" horiz-adv-x="410" 
d="M164 1088h133l-145 -1088h-138z" />
    <glyph glyph-name="kappa" unicode="&#x3ba;" horiz-adv-x="1028" 
d="M194 1089h136l-57 -404l524 403h218l-632 -486l557 -602h-186l-502 540l-73 -540h-140z" />
    <glyph glyph-name="lambda" unicode="&#x3bb;" horiz-adv-x="1098" 
d="M941 0h-143l-251 838l-486 -838h-148l581 1006l-153 502h142z" />
    <glyph glyph-name="mu" unicode="&#x3bc;" horiz-adv-x="1249" 
d="M480 -28q-228 0 -309 144l-73 -514h-137l207 1486h138l-67 -499q-23 -168 -23 -233q0 -118 70 -187.5t188 -69.5t212 64t138.5 155t73.5 300l65 470h137l-151 -1088h-134l21 167q-128 -195 -356 -195z" />
    <glyph glyph-name="nu" unicode="&#x3bd;" horiz-adv-x="1135" 
d="M56 1088h143l275 -796l458 796h152l-627 -1088h-26z" />
    <glyph glyph-name="xi" unicode="&#x3be;" horiz-adv-x="953" 
d="M374 -296q270 0 270 169q0 49 -44 79t-180 60q-208 46 -290.5 146t-82.5 243q0 376 378 485q-198 98 -198 265t134 276t350 109q154 0 274 -37l-51 -134q-109 40 -252 40t-228 -74.5t-85 -178.5t101.5 -163t245.5 -59h119l-16 -122h-202q-179 0 -302 -102t-124 -296
q0 -106 54.5 -168t234.5 -102t244 -98t64 -145q1 -142 -100 -232.5t-321 -90.5q-87 0 -162 20l53 126q61 -16 116 -16z" />
    <glyph glyph-name="omicron" unicode="&#x3bf;" horiz-adv-x="1341" 
d="M663 983q-117 0 -231 -65q-114 -64 -176 -178t-61 -268q0 -154 106 -262t274 -108q131 0 237 62t170 181q63 118 63 242q0 123 -47 211t-133 136t-202 49zM665 1116q154 0 270 -66t181 -186q65 -118 65 -278t-83 -308q-83 -146 -223 -226t-317 -80q-218 0 -360 144
t-142 365q0 174 83 321q83 146 227 230t299 84z" />
    <glyph glyph-name="pi" unicode="&#x3c0;" horiz-adv-x="1373" 
d="M1323 965h-225l-129 -965h-137l129 965h-549l-129 -965h-137l129 965h-225l16 123h1273z" />
    <glyph glyph-name="rho" unicode="&#x3c1;" horiz-adv-x="1372" 
d="M227 489q0 -171 104.5 -279t275.5 -108q214 0 342 147t128 341t-110 293.5t-258 99.5q-201 0 -341.5 -139t-140.5 -355zM712 1116q212 0 356.5 -146t144.5 -388t-174 -426t-444 -184t-414 239l-81 -609h-138l127 912q46 328 228.5 465t394.5 137z" />
    <glyph glyph-name="sigma1" unicode="&#x3c2;" horiz-adv-x="1185" 
d="M686 984q-222 0 -362.5 -149t-140.5 -366q0 -130 78.5 -205.5t290.5 -115.5t286 -97.5t74 -152.5q0 -144 -101 -234t-320 -90q-87 0 -162 20l53 126q61 -16 116 -16q270 0 270 167q0 54 -52 87t-220 62q-455 80 -455 439q0 268 187 462.5t455 194.5q164 0 267.5 -49.5
t188.5 -160.5l-112 -70q-119 148 -341 148z" />
    <glyph glyph-name="sigma" unicode="&#x3c3;" horiz-adv-x="1468" 
d="M195 489q0 -171 104.5 -279t275.5 -108q222 0 346 152t124 341t-110 288.5t-258 99.5q-201 0 -341.5 -139t-140.5 -355zM1181 578q0 -238 -174 -422t-449 -184q-220 0 -361 142.5t-141 366.5q0 268 182 451.5t442 183.5q90 0 170 -28h594l-16 -123h-385
q138 -149 138 -387z" />
    <glyph glyph-name="tau" unicode="&#x3c4;" horiz-adv-x="823" 
d="M773 965h-292l-129 -965h-138l129 965h-293l16 123h723z" />
    <glyph glyph-name="upsilon" unicode="&#x3c5;" horiz-adv-x="1219" 
d="M209 400q0 -297 290 -297q192 0 306.5 143.5t114.5 369.5t-193 380l88 121q246 -205 246 -491t-156 -470t-426 -184q-409 0 -409 407q0 76 14 185l70 524h138l-68 -508q-15 -113 -15 -180z" />
    <glyph glyph-name="phi" unicode="&#x3c6;" horiz-adv-x="1568" 
d="M1272 596q0 175 -109.5 276t-305.5 107l-115 -869q530 25 530 486zM44 471q0 213 133 374.5t366 243.5l27 -133q-386 -141 -386 -474t417 -369l133 1000q40 3 70 3q288 0 448 -142t160 -371q1 -293 -182 -456.5t-507 -172.5l-49 -372h-141l49 373q-245 17 -391.5 150
t-146.5 346z" />
    <glyph glyph-name="chi" unicode="&#x3c7;" horiz-adv-x="983" 
d="M965 1088l-476 -709l315 -777h-150l-258 638l-429 -638h-161l529 789l-282 697h148l226 -559l375 559h163z" />
    <glyph glyph-name="psi" unicode="&#x3c8;" horiz-adv-x="1507" 
d="M68 403q0 66 13 161l70 524h140l-64 -478q-16 -120 -16 -188q0 -181 111.5 -241.5t247.5 -69.5l131 977h138l-131 -978q171 14 276 80.5t141 154t59 265.5l64 478h140l-72 -534q-21 -162 -69 -275.5t-190.5 -202.5t-366.5 -102l-49 -372h-138l49 372q-484 41 -484 429z
" />
    <glyph glyph-name="omega" unicode="&#x3c9;" horiz-adv-x="1756" 
d="M435 -28q-184 0 -292.5 113t-108.5 312q1 284 194 489t491 230l-6 -132q-227 -17 -384 -180.5t-157 -410.5q0 -293 269 -293q117 0 197 99.5t105 288.5l18 134h142l-18 -134q-9 -67 -9 -122q0 -266 207 -266q194 0 281.5 134t87.5 316t-109 300.5t-295 132.5l29 133
q224 -11 369.5 -169.5t145.5 -388.5t-127 -408t-410 -178q-108 0 -186.5 64.5t-93.5 162.5q-42 -103 -134.5 -165t-205.5 -62z" />
    <glyph glyph-name="iotadieresis" unicode="&#x3ca;" horiz-adv-x="410" 
d="M164 1088h133l-145 -1088h-138zM510 1518q48 0 76 -29t29 -76q-1 -47 -41 -87t-88 -40t-76 28t-29 76q0 48 40 88q41 40 89 40zM101 1518q48 0 77 -29t29 -76q-1 -47 -41 -87t-88 -40t-76 28t-29 76q0 48 40 88t88 40z" />
    <glyph glyph-name="upsilondieresis" unicode="&#x3cb;" horiz-adv-x="1219" 
d="M209 400q0 -297 290 -297q193 -1 307 143t114 370t-193 380l88 121q246 -205 246 -491t-156 -470t-426 -184q-409 0 -409 407q0 76 14 185l70 524h138l-68 -508q-15 -113 -15 -180zM882 1518q48 0 78 -29q28 -29 28 -76t-40 -87t-89 -40t-77 28t-28 76t40 88t88 40z
M474 1518q48 0 77 -29t29 -76t-40 -87t-89 -40t-77 28t-28 76t40 88t88 40z" />
    <glyph glyph-name="omicrontonos" unicode="&#x3cc;" horiz-adv-x="1341" 
d="M663 983q-117 0 -231 -65q-114 -64 -176 -178t-61 -268q0 -154 106 -262t274 -108q131 0 237 62t170 181q63 118 63 242q0 123 -47 211t-133 136t-202 49zM665 1116q154 0 270 -66t181 -186q65 -118 65 -278t-83 -308q-83 -146 -223 -226t-317 -80q-218 0 -360 144
t-142 365q0 174 83 321q83 146 227 230t299 84zM841 1598l-73 -338h-118l16 338h175z" />
    <glyph glyph-name="upsilontonos" unicode="&#x3cd;" horiz-adv-x="1219" 
d="M209 400q0 -297 290 -297q193 -1 307 143t114 370t-193 380l88 121q246 -205 246 -491t-156 -470t-426 -184q-409 0 -409 407q0 76 14 185l70 524h138l-68 -508q-15 -113 -15 -180zM781 1598l-73 -338h-118l16 338h175z" />
    <glyph glyph-name="omegatonos" unicode="&#x3ce;" horiz-adv-x="1756" 
d="M435 -28q-185 0 -293 113t-108 312q1 284 194 489t491 230l-6 -132q-227 -16 -384 -180t-157 -411q0 -293 269 -293q117 0 197 100t105 288l18 134h142l-18 -134q-9 -67 -9 -122q0 -266 207 -266q194 0 282 134q87 134 87 316t-109 301q-109 118 -295 132l29 133
q223 -11 369 -169q146 -159 146 -389t-127 -408t-410 -178q-109 0 -187 64t-93 163q-43 -103 -135 -165t-205 -62zM1049 1598l-73 -338h-118l16 338h175z" />
    <glyph glyph-name="afii10023" unicode="&#x401;" horiz-adv-x="1098" 
d="M1056 1471l-21 -143h-662l-65 -482h662l-19 -141h-662l-75 -564h662l-17 -141h-811l197 1471h811zM888 1816q48 0 78 -29q28 -29 28 -76t-40 -87t-89 -40t-77 28t-28 76t40 88t88 40zM480 1816q48 0 77 -29t29 -76t-40 -87t-89 -40t-77 28t-28 76t40 88t88 40z" />
    <glyph glyph-name="afii10051" unicode="&#x402;" horiz-adv-x="1296" 
d="M596 856q333 0 450.5 -104t117.5 -298t-97.5 -341.5t-275.5 -147.5q-126 0 -242 89l75 99q85 -58 160 -58q107 0 165.5 113t58.5 234q0 162 -94 215.5t-296 53.5h-165l-99 -711h-150l180 1328h-329l19 143h808l-20 -143h-328l-63 -472h125z" />
    <glyph glyph-name="afii10052" unicode="&#x403;" horiz-adv-x="920" 
d="M194 0h-146l199 1471h737l-20 -145h-591zM772 1895h215l-339 -308h-138z" />
    <glyph glyph-name="afii10053" unicode="&#x404;" horiz-adv-x="1608" 
d="M223 622q0 -210 159 -365t417 -155q309 0 548 242l105 -88q-272 -293 -676 -293q-340 0 -522 189t-182 475q0 364 267 622.5t638 258.5q205 0 362.5 -82t240.5 -228l-128 -89q-161 254 -492 254q-233 0 -435 -145t-281 -404h690l-20 -145h-689q-2 -31 -2 -47z" />
    <glyph glyph-name="afii10054" unicode="&#x405;" horiz-adv-x="1020" 
d="M554 1365q-78 1 -130 -55t-51 -144t45 -160t176 -192q240 -217 240 -432q0 -107 -58 -206t-158 -156q-99 -57 -225 -57q-125 0 -229 90t-149 264l136 46q32 -132 104 -196q73 -64 173 -64t177 79q77 80 77 180t-44 181t-174 200q-132 119 -173 185q-67 110 -67 246
t98 236q98 98 234 98q134 0 230 -78t141 -231l-139 -35q-28 93 -92 147t-142 54z" />
    <glyph glyph-name="afii10055" unicode="&#x406;" horiz-adv-x="463" 
d="M238 1471h148l-199 -1471h-148z" />
    <glyph glyph-name="afii10056" unicode="&#x407;" horiz-adv-x="463" 
d="M239 1471h148l-199 -1471h-148zM572 1816q48 0 78 -29q28 -29 28 -76t-40 -87t-89 -40t-77 28t-28 76t40 88t88 40zM164 1816q48 0 77 -29t29 -76t-40 -87t-89 -40t-77 28t-28 76t40 88t88 40z" />
    <glyph glyph-name="afii10057" unicode="&#x408;" horiz-adv-x="987" 
d="M333 -37q-97 1 -183 41t-175 136l113 80q125 -121 244 -121q90 0 145 82q42 62 69 265l134 1025h145l-133 -1014q-30 -229 -70 -315t-116 -132q-76 -47 -173 -47z" />
    <glyph glyph-name="afii10058" unicode="&#x409;" horiz-adv-x="2130" 
d="M1314 142q239 0 322.5 12.5t144 81t60.5 176.5t-55.5 177t-149.5 88t-280 19h-273l185 -554h46zM1357 840q400 0 520.5 -123.5t120.5 -294.5t-106.5 -296.5t-477.5 -125.5h-257l-389 1159l-708 -1159h-162l894 1471h35l222 -631h308z" />
    <glyph glyph-name="afii10059" unicode="&#x40a;" horiz-adv-x="2085" 
d="M1268 142q201 0 265 6t162 57.5t98 231.5q0 105 -54 169.5t-154 84.5t-273 20h-124l-77 -569h157zM1313 855q356 0 497 -110t141 -306q0 -121 -49.5 -215t-131.5 -145t-167.5 -65t-365.5 -14h-293l96 711h-748l-96 -711h-148l199 1471h148l-83 -616h747l83 616h148
l-83 -616h106z" />
    <glyph glyph-name="afii10060" unicode="&#x40b;" horiz-adv-x="1296" 
d="M651 855q297 0 406 -79t109 -237q0 -57 -15 -169l-49 -370h-143l54 377q11 77 11 139q0 116 -83 155.5t-225 39.5h-263l-99 -711h-150l180 1328h-329l19 143h808l-20 -143h-328l-65 -473h182z" />
    <glyph glyph-name="afii10061" unicode="&#x40c;" horiz-adv-x="1173" 
d="M231 1471h150l-83 -611l670 611h199l-735 -656l591 -815h-195l-512 713l-43 -37l-91 -676h-150zM821 1895h215l-339 -308h-138z" />
    <glyph glyph-name="afii10062" unicode="&#x40e;" horiz-adv-x="1276" 
d="M273 -37q-77 1 -145 33t-160 153l118 88q97 -109 132 -124t83 -15q49 0 95 31t114 155l-377 1183h166l309 -999l544 1003h160l-736 -1322q-104 -186 -303 -186zM724 1714q82 0 135 22t105 82h128q-34 -90 -134 -150t-248 -61q-148 0 -231 60q-84 60 -96 151h132
q53 -104 209 -104z" />
    <glyph glyph-name="afii10145" unicode="&#x40f;" horiz-adv-x="1333" 
d="M469 0h-421l199 1471h148l-180 -1332h678l181 1332h148l-199 -1471h-417l-30 -220h-137z" />
    <glyph glyph-name="afii10017" unicode="&#x410;" horiz-adv-x="1515" 
d="M805 1163l-314 -542h496zM852 1471l493 -1471h-151l-161 481h-623l-275 -481h-164l847 1471h34z" />
    <glyph glyph-name="afii10018" unicode="&#x411;" horiz-adv-x="1126" 
d="M397 144q176 0 255 18t135 85t56 179t-56 186.5t-143 95.5t-268 21h-79l-78 -585h178zM380 870q371 0 492 -132t121 -316q0 -146 -75.5 -250.5t-183 -138t-279.5 -33.5h-407l199 1471h744l-20 -145h-591l-65 -456h65z" />
    <glyph glyph-name="afii10019" unicode="&#x412;" horiz-adv-x="1176" 
d="M414 139q208 0 302 21q94 20 150 86t57 164q0 98 -46 158q-46 62 -151 96t-314 35h-123l-74 -560h199zM407 839q201 0 289 32q88 33 137 101t49 164t-76 146q-76 52 -326 52q-43 0 -107 -3l-66 -488q43 -4 100 -4zM435 1471q278 1 376 -33q99 -34 159 -117t60 -199
t-64 -208q-64 -93 -172 -134q130 -40 204 -136t74 -230t-64 -231t-170 -140q-107 -43 -369 -43h-419l196 1471h189z" />
    <glyph glyph-name="afii10020" unicode="&#x413;" horiz-adv-x="917" 
d="M194 0h-146l199 1471h737l-20 -145h-591z" />
    <glyph glyph-name="afii10021" unicode="&#x414;" horiz-adv-x="1468" 
d="M165 137h935l-341 1058zM-12 -220h-145l48 357h120l758 1334h50l429 -1334h115l-48 -357h-145l29 220h-1181z" />
    <glyph glyph-name="afii10022" unicode="&#x415;" horiz-adv-x="1098" 
d="M1056 1471l-21 -143h-662l-65 -482h662l-19 -141h-662l-75 -564h662l-17 -141h-811l197 1471h811z" />
    <glyph glyph-name="afii10024" unicode="&#x416;" horiz-adv-x="1800" 
d="M933 663l-87 -663h-150l93 671l-47 55l-693 -726h-181l795 818l-535 653h158l519 -653l90 653h150l-87 -653l674 653h167l-708 -673l575 -798h-172l-498 718z" />
    <glyph glyph-name="afii10025" unicode="&#x417;" horiz-adv-x="1090" 
d="M555 1509q169 0 270 -99.5t101 -254.5q0 -274 -272 -370q246 -113 246 -365q0 -202 -135 -330t-361 -128q-342 0 -501 299l114 60q108 -156 196.5 -192.5t186.5 -36.5q176 0 262.5 99t86.5 221t-83 215.5t-303 93.5h-25l16 118h49q211 0 295 92.5t84 210.5t-69.5 176
t-173.5 58q-148 0 -297 -138l-88 90q172 181 401 181z" />
    <glyph glyph-name="afii10026" unicode="&#x418;" horiz-adv-x="1487" 
d="M1176 0h-152l152 1127l-1074 -1127h-54l199 1471h146l-155 -1147l1091 1147h46z" />
    <glyph glyph-name="afii10027" unicode="&#x419;" horiz-adv-x="1487" 
d="M1176 0h-152l152 1127l-1074 -1127h-54l199 1471h146l-155 -1147l1091 1147h46zM835 1714q82 0 135 22t105 82h128q-35 -90 -135 -150t-246 -61q-148 0 -232 60t-96 151h132q53 -104 209 -104z" />
    <glyph glyph-name="afii10028" unicode="&#x41a;" horiz-adv-x="1182" 
d="M245 1471h150l-83 -611l670 611h199l-735 -656l591 -815h-195l-512 713l-43 -37l-91 -676h-150z" />
    <glyph glyph-name="afii10029" unicode="&#x41b;" horiz-adv-x="1477" 
d="M1164 0l-386 1190l-727 -1190h-154l894 1471h35l488 -1471h-150z" />
    <glyph glyph-name="afii10030" unicode="&#x41c;" horiz-adv-x="1882" 
d="M1642 1471v-1471h-138v1014l-638 -1014h-37l-381 1050l-302 -1050h-149l425 1471h24l430 -1195l743 1195h23z" />
    <glyph glyph-name="afii10031" unicode="&#x41d;" horiz-adv-x="1399" 
d="M245 1471h145l-79 -598h753l80 598h143l-193 -1471h-144l97 734h-757l-96 -734h-146z" />
    <glyph glyph-name="afii10032" unicode="&#x41e;" horiz-adv-x="1780" 
d="M954 1369q-212 0 -378 -92t-262 -261q-96 -170 -96 -346t70 -304t194 -197q124 -68 306 -68q182 -1 351 95t265 266t97 366q0 261 -183 414q-152 127 -364 127zM956 1508q296 0 494 -195t198 -493q0 -363 -250 -610t-625 -247q-318 0 -509 190t-191 497q1 237 115 435
q114 199 316 311t452 112z" />
    <glyph glyph-name="afii10033" unicode="&#x41f;" horiz-adv-x="1401" 
d="M247 1471h1043l-198 -1471h-148l180 1331h-748l-180 -1331h-148z" />
    <glyph glyph-name="afii10034" unicode="&#x420;" horiz-adv-x="1212" 
d="M529 840q207 0 287 28t128 98t48 148t-33 126q-33 49 -91 69t-213 20h-263l-68 -489h205zM663 1471q199 0 285 -37q86 -36 139 -118q52 -82 52 -210t-82 -236t-207 -146q-91 -29 -321 -29h-223l-94 -695h-147l197 1471h401z" />
    <glyph glyph-name="afii10035" unicode="&#x421;" horiz-adv-x="1665" 
d="M954 1365q-194 0 -364 -95t-266 -256t-95 -336q-1 -175 73 -303q74 -129 213 -201t318 -72q273 0 509 173l82 -117q-175 -115 -301 -155t-291 -40q-305 0 -497 153q-255 204 -255 552t255 594t634 246q173 0 315 -54t292 -186l-89 -123q-234 220 -533 220z" />
    <glyph glyph-name="afii10036" unicode="&#x422;" horiz-adv-x="872" 
d="M73 1471h879l-19 -140h-375l-177 -1331h-147l177 1331h-357z" />
    <glyph glyph-name="afii10037" unicode="&#x423;" horiz-adv-x="1276" 
d="M273 -37q-77 0 -145 32.5t-160 153.5l118 88q97 -109 132 -124t83 -15t94.5 31t114.5 155l-377 1183h166l309 -999l544 1003h160l-736 -1322q-104 -186 -303 -186z" />
    <glyph glyph-name="afii10038" unicode="&#x424;" horiz-adv-x="1679" 
d="M991 566q190 0 273 34.5t135.5 114t52.5 176.5q0 136 -92.5 192t-291.5 56h-135l-78 -573h136zM652 1139q-197 0 -282.5 -38.5t-131 -122t-45.5 -171.5q0 -130 95 -185.5t287 -55.5h135l78 573h-136zM566 424q-524 0 -524 378q0 165 124.5 322t514.5 157h130l26 190h138
l-24 -190h113q310 0 424.5 -106.5t114.5 -266.5t-85 -279t-206 -162t-350 -43h-125l-57 -424h-147l57 424h-124z" />
    <glyph glyph-name="afii10039" unicode="&#x425;" horiz-adv-x="1247" 
d="M217 1471h156l260 -572l433 572h172l-540 -713l348 -758h-155l-288 627l-476 -627h-173l584 771z" />
    <glyph glyph-name="afii10040" unicode="&#x426;" horiz-adv-x="1366" 
d="M1138 0h-1090l199 1471h148l-180 -1333h678l181 1333h148l-181 -1333h253l-49 -360h-138z" />
    <glyph glyph-name="afii10041" unicode="&#x427;" horiz-adv-x="1169" 
d="M701 699q-247 0 -418.5 33t-171.5 296q0 51 14 151l39 292h143l-41 -301q-12 -92 -12 -155t36.5 -107t97 -58t189.5 -14h249l86 635h147l-199 -1471h-147l94 699h-106z" />
    <glyph glyph-name="afii10042" unicode="&#x428;" horiz-adv-x="2069" 
d="M215 139h628l180 1332h148l-180 -1332h637l180 1332h148l-198 -1471h-1710l199 1471h148z" />
    <glyph glyph-name="afii10043" unicode="&#x429;" horiz-adv-x="2128" 
d="M1777 139h277l-48 -359h-138l30 220h-1850l199 1471h148l-180 -1332h632l181 1332h148l-180 -1332h632l181 1332h148z" />
    <glyph glyph-name="afii10044" unicode="&#x42a;" horiz-adv-x="1315" 
d="M495 143q207 0 267 3t155.5 51t95.5 217q0 121 -74.5 201.5t-280.5 80.5h-241l-75 -553h153zM611 840q191 0 271 -23.5t151 -81t110 -142t39 -180.5q0 -155 -89.5 -260t-201.5 -129t-426 -24h-296l180 1333h-328l19 138h481l-85 -631h175z" />
    <glyph glyph-name="afii10045" unicode="&#x42b;" horiz-adv-x="1645" 
d="M367 143q208 0 267.5 3t155 51t95.5 217q0 120 -74 201t-281 81h-241l-75 -553h153zM1055 428q0 -170 -90 -275t-202 -129t-426 -24h-289l199 1471h146l-85 -631h175l77 1q230 0 362.5 -121.5t132.5 -291.5zM1387 1471h147l-199 -1471h-147z" />
    <glyph glyph-name="afii10046" unicode="&#x42c;" horiz-adv-x="1186" 
d="M367 143q207 0 267 3t155.5 51t95.5 217q0 120 -75 201t-280 81h-241l-75 -553h153zM560 840q230 0 362 -121t132 -291t-90 -275t-202 -129t-425 -24h-289l199 1471h146l-85 -631h252z" />
    <glyph glyph-name="afii10047" unicode="&#x42d;" horiz-adv-x="1608" 
d="M1319 877q0 198 -148.5 342t-407.5 144q-156 0 -273 -53t-285 -203l-106 91q298 310 686 310q305 0 501 -180.5t196 -474.5q0 -362 -234.5 -626t-659.5 -264t-617 293l128 88q174 -242 484 -242q262 0 460 147t255 420h-689l19 145h688q3 41 3 63z" />
    <glyph glyph-name="afii10048" unicode="&#x42e;" horiz-adv-x="2230" 
d="M1954 843q0 210 -149.5 366t-398.5 156q-298 0 -504.5 -220.5t-206.5 -510.5q0 -224 155.5 -376t385.5 -152q287 0 502.5 213.5t215.5 523.5zM1430 1508q296 0 486 -190.5t190 -466.5q0 -360 -265 -624t-620 -264q-174 0 -310.5 63t-225.5 178.5t-114.5 225.5t-25.5 247
h-258l-92 -677h-147l199 1471h147l-89 -657h258q90 342 330.5 518t536.5 176z" />
    <glyph glyph-name="afii10049" unicode="&#x42f;" horiz-adv-x="1212" 
d="M675 1327q-150 0 -224 -27t-124.5 -102.5t-50.5 -173.5t68 -160t275 -62h244l71 525h-259zM124 1048q0 128 84 239t196.5 147.5t316.5 36.5h380l-199 -1471h-147l89 663h-139l-562 -663h-182l563 663q-66 0 -178 38t-167 128.5t-55 218.5z" />
    <glyph glyph-name="afii10065" unicode="&#x430;" horiz-adv-x="1399" 
d="M565 100q153 0 264 64t176 182q65 120 65 274t-107 260t-293 106t-329 -145t-143 -356q0 -173 107 -279t260 -106zM693 1116q262 0 403 -235l25 207h145l-145 -1088h-141l21 164q-189 -192 -422 -192t-376 143t-143 368q0 261 186 447t447 186z" />
    <glyph glyph-name="afii10066" unicode="&#x431;" horiz-adv-x="1382" 
d="M1099 583q0 179 -106.5 287.5t-261.5 108.5q-192 0 -340 -154.5t-148 -332.5t103.5 -282.5t266.5 -104.5q199 0 342.5 149.5t143.5 328.5zM754 1116q213 0 351.5 -142t138.5 -354q0 -254 -192 -451t-457 -197q-227 0 -367.5 150.5t-140.5 413.5q0 220 59 430.5t168.5 330
t273 165.5t528.5 55q111 3 187 14l-19 -134q-104 -17 -328 -23t-348 -38.5t-216 -138.5t-134 -289l-34 -153q166 361 530 361z" />
    <glyph glyph-name="afii10067" unicode="&#x432;" horiz-adv-x="958" 
d="M667 304q0 73 -39.5 122t-90.5 61t-162 12h-128l-51 -381h162l78 -1q231 0 231 187zM358 627q116 0 167.5 13.5t88 56.5t36.5 109t-29.5 104t-75.5 47.5t-141 9.5h-92l-46 -340h92zM487 1088q137 0 219 -76t82 -190q0 -183 -190 -246q99 -35 151.5 -112.5t52.5 -183.5
t-85.5 -193.5t-234.5 -87.5l-125 1h-316l147 1088h299z" />
    <glyph glyph-name="afii10068" unicode="&#x433;" horiz-adv-x="719" 
d="M311 965l-131 -965h-139l147 1088h550l-16 -123h-411z" />
    <glyph glyph-name="afii10069" unicode="&#x434;" horiz-adv-x="1208" 
d="M590 857l-408 -738h611zM35 119l550 969h74l286 -969h131l-35 -258h-136l19 139h-900l-19 -145h-138l36 264h132z" />
    <glyph glyph-name="afii10070" unicode="&#x435;" horiz-adv-x="1331" 
d="M678 982q-156 0 -282 -92q-124 -92 -176 -253h818q-6 153 -105 249t-255 96zM574 100q115 0 213 47t162 132l104 -85q-79 -102 -207 -162t-275 -60q-257 0 -385 158t-128 339q0 180 86 330q86 149 232 233q145 84 314 84q209 0 346 -142t137 -360q0 -40 -7 -98h-970
q-3 -194 101 -305t277 -111z" />
    <glyph glyph-name="afii10072" unicode="&#x436;" horiz-adv-x="1599" 
d="M754 1088h142l-68 -491l587 491h171l-591 -491l470 -597h-166l-403 526l-86 -67l-62 -459h-141l62 459l-70 67l-540 -526h-179l630 603l-440 485h156l459 -503z" />
    <glyph glyph-name="afii10073" unicode="&#x437;" horiz-adv-x="872" 
d="M363 630q88 0 151.5 56t63.5 138t-51 124t-146 42t-211 -92l-66 97q136 122 313 122q132 0 215.5 -76.5t83.5 -194.5q0 -170 -177 -268q153 -87 153 -249t-100 -259.5t-301 -97.5t-352 144l94 92q123 -116 255 -116t198 66t66 158t-56.5 143t-132.5 51h-88l16 120h72z
" />
    <glyph glyph-name="afii10074" unicode="&#x438;" horiz-adv-x="1249" 
d="M325 1088l-105 -782l874 782h11l-148 -1088h-140l104 775l-863 -775h-17l144 1088h140z" />
    <glyph glyph-name="afii10075" unicode="&#x439;" horiz-adv-x="1249" 
d="M325 1088l-105 -782l874 782h11l-148 -1088h-140l104 775l-863 -775h-17l144 1088h140zM699 1421q82 1 135 23t105 81h128q-35 -91 -135 -151t-246 -60q-148 0 -232 60t-96 151h132q53 -104 209 -104z" />
    <glyph glyph-name="afii10076" unicode="&#x43a;" horiz-adv-x="1051" 
d="M188 1088h141l-62 -458l565 458h206l-618 -498l504 -590h-198l-432 503l-49 -39l-63 -464h-141z" />
    <glyph glyph-name="afii10077" unicode="&#x43b;" horiz-adv-x="1061" 
d="M926 0h-149l-258 792l-468 -792h-149l645 1088h25z" />
    <glyph glyph-name="afii10078" unicode="&#x43c;" horiz-adv-x="1735" 
d="M1312 1088h40l195 -1088h-137l-138 808l-516 -808h-41l-303 803l-344 -803h-140l472 1088h38l329 -856z" />
    <glyph glyph-name="afii10079" unicode="&#x43d;" horiz-adv-x="1249" 
d="M272 656h630l62 432h141l-151 -1088h-141l72 524h-631l-72 -524h-141l151 1088h141z" />
    <glyph glyph-name="afii10080" unicode="&#x43e;" horiz-adv-x="1341" 
d="M663 983q-117 0 -231 -65q-114 -64 -176 -178t-61 -268q0 -154 106 -262t274 -108q131 0 237 62t170 181q63 118 63 242q0 123 -47 211t-133 136t-202 49zM665 1116q154 0 270 -66t181 -186q65 -118 65 -278t-83 -308q-83 -146 -223 -226t-317 -80q-218 0 -360 144
t-142 365q0 174 83 321q83 146 227 230t299 84z" />
    <glyph glyph-name="afii10081" unicode="&#x43f;" horiz-adv-x="1249" 
d="M188 1088h917l-147 -1088h-141l130 956h-637l-129 -956h-140z" />
    <glyph glyph-name="afii10082" unicode="&#x440;" horiz-adv-x="1397" 
d="M742 988q-134 0 -246 -64t-176 -182q-65 -120 -65 -274q-1 -154 107 -260t294 -106t328 145q143 145 143 356q-1 173 -107 279t-278 106zM633 -28q-262 0 -403 236l-79 -606h-145l198 1486h142l-21 -163q189 191 422 191t375 -143t143 -368q0 -261 -185 -447t-447 -186z
" />
    <glyph glyph-name="afii10083" unicode="&#x441;" horiz-adv-x="1325" 
d="M713 982q-144 0 -263 -64t-186 -178t-67 -236t50 -214q104 -189 354 -189q127 0 241 50t178 129l115 -81q-109 -119 -235 -173t-293 -54q-259 0 -403 140t-144 388t190 432t464 184q165 0 291 -70t193 -193l-115 -67q-121 196 -370 196z" />
    <glyph glyph-name="afii10084" unicode="&#x442;" horiz-adv-x="846" 
d="M83 1088h717l-17 -121h-288l-131 -967h-141l131 967h-287z" />
    <glyph glyph-name="afii10085" unicode="&#x443;" horiz-adv-x="1098" 
d="M47 1088h144l282 -803l466 803h155l-862 -1486h-157l308 531z" />
    <glyph glyph-name="afii10086" unicode="&#x444;" horiz-adv-x="2202" 
d="M188 472q0 -161 98 -268t272 -107q100 0 217 71t164.5 199.5t47.5 266.5t-74.5 243.5t-238.5 105.5q-197 0 -341.5 -152.5t-144.5 -358.5zM1113 464q0 -212 104.5 -291t202.5 -79q220 0 360 153.5t140 363.5q0 168 -100 270t-262 102q-196 0 -320.5 -153.5t-124.5 -365.5
zM1587 1110q206 0 340 -134.5t134 -345.5q0 -297 -180.5 -480.5t-436.5 -183.5q-294 0 -370 229l-79 -593h-139l78 593q-111 -228 -402 -228q-211 0 -350.5 139.5t-139.5 349.5q0 284 186.5 469t436.5 185q290 0 362 -243l87 641h138l-88 -641q134 243 423 243z" />
    <glyph glyph-name="afii10087" unicode="&#x445;" horiz-adv-x="983" 
d="M36 1088h158l265 -425l311 425h168l-403 -548l329 -540h-159l-258 418l-307 -418h-168l399 540z" />
    <glyph glyph-name="afii10088" unicode="&#x446;" horiz-adv-x="1294" 
d="M1035 0h-995l147 1088h141l-130 -956h611l129 956h141l-128 -956h235l-41 -304h-132z" />
    <glyph glyph-name="afii10089" unicode="&#x447;" horiz-adv-x="948" 
d="M375 491q-106 0 -170 18.5t-110.5 78.5t-46.5 148q0 26 7 82l35 270h138l-26 -197q-15 -111 -15 -133q0 -84 37 -116t161 -32h213l65 478h141l-147 -1088h-139l66 491h-209z" />
    <glyph glyph-name="afii10090" unicode="&#x448;" horiz-adv-x="1956" 
d="M1667 0h-1627l147 1088h143l-129 -956h598l129 956h143l-128 -956h599l127 956h142z" />
    <glyph glyph-name="afii10091" unicode="&#x449;" horiz-adv-x="2017" 
d="M41 0l147 1088h143l-129 -956h598l129 956h143l-128 -956h599l127 956h142l-126 -956h223l-41 -304h-120l22 172h-1729z" />
    <glyph glyph-name="afii10092" unicode="&#x44a;" horiz-adv-x="1034" 
d="M404 118q134 0 190.5 15t96 63.5t39.5 134.5t-77 139.5t-209 53.5h-146l-55 -406h161zM492 657q179 0 279 -93.5t100 -243.5q0 -199 -122 -258t-304 -62h-363l130 960h-244l17 128h382l-57 -431h182z" />
    <glyph glyph-name="afii10093" unicode="&#x44b;" horiz-adv-x="1432" 
d="M362 118q135 0 191 15t95.5 63.5t39.5 134.5t-76.5 139.5t-208.5 53.5h-147l-55 -406h161zM450 656q191 0 286 -98t95 -238t-93 -230t-335 -90h-362l147 1088h139l-58 -432h181zM1146 1088h141l-147 -1088h-141z" />
    <glyph glyph-name="afii10094" unicode="&#x44c;" horiz-adv-x="995" 
d="M361 118q135 0 191 15t95.5 63.5t39.5 134.5t-76.5 139.5t-208.5 53.5h-147l-55 -406h161zM449 656q194 0 288.5 -101t94.5 -218t-44.5 -189t-131 -110t-254.5 -38h-362l147 1088h139l-59 -432h182z" />
    <glyph glyph-name="afii10095" unicode="&#x44d;" horiz-adv-x="1311" 
d="M608 984q-262 0 -419 -191l-106 71q206 252 537 252q230 0 382 -136t152 -386t-177.5 -436t-471.5 -186q-375 0 -505 246l121 73q126 -191 367 -191q181 0 319.5 99t192.5 304h-491l16 120h484q-6 169 -119.5 265t-281.5 96z" />
    <glyph glyph-name="afii10096" unicode="&#x44e;" horiz-adv-x="1726" 
d="M1426 579q0 185 -107 292.5t-261 107.5q-208 0 -347.5 -146.5t-139.5 -340.5t109.5 -290.5t263.5 -96.5q199 0 340.5 144.5t141.5 329.5zM1071 1116q221 0 359.5 -140t138.5 -360q0 -274 -184.5 -459t-452.5 -185q-219 0 -361 132t-142 389h-181l-66 -493h-141l147 1088
h141l-62 -457h183q52 227 226 356t395 129z" />
    <glyph glyph-name="afii10097" unicode="&#x44f;" horiz-adv-x="961" 
d="M567 967q-127 0 -177 -13t-87.5 -65t-37.5 -131t62 -115.5t191 -36.5h92l49 361h-92zM128 758q0 144 89 237t267 93h332l-147 -1088h-139l66 487h-98l-372 -487h-174l398 503q-101 26 -161.5 96t-60.5 159z" />
    <glyph glyph-name="afii10071" unicode="&#x451;" horiz-adv-x="1331" 
d="M678 982q-156 0 -282 -92q-124 -92 -176 -253h818q-6 153 -105 249t-255 96zM574 100q115 0 213 47t162 132l104 -85q-79 -102 -207 -162t-275 -60q-257 0 -385 158t-128 339q0 180 86 330q86 149 232 233q145 84 314 84q209 0 346 -142t137 -360q0 -40 -7 -98h-970
q-3 -194 101 -305t277 -111zM970 1518q48 0 76 -29t29 -76q-1 -47 -41 -87t-88 -40t-76 28t-29 76q0 48 40 88q41 40 89 40zM561 1518q48 0 77 -29t29 -76q-1 -47 -41 -87t-88 -40t-76 28t-29 76q0 48 40 88t88 40z" />
    <glyph glyph-name="afii10099" unicode="&#x452;" horiz-adv-x="1249" 
d="M691 1116q158 0 265 -100t107 -266q0 -101 -20 -250l-69 -500l-12 -70q-37 -224 -89 -290t-137 -66q-55 0 -120 28l17 119q34 -22 78 -22t67.5 47.5t39.5 142.5l19 111l67 500q19 140 19 251t-72.5 175t-187.5 64t-214 -72t-140 -173t-64 -274l-64 -471h-140l171 1252
h-154l16 120h155l16 136h139l-16 -136h419l-16 -120h-419l-45 -329q168 193 384 193z" />
    <glyph glyph-name="afii10100" unicode="&#x453;" horiz-adv-x="719" 
d="M311 965l-131 -965h-139l147 1088h550l-16 -123h-411zM663 1596h215l-339 -308h-138z" />
    <glyph glyph-name="afii10101" unicode="&#x454;" horiz-adv-x="1305" 
d="M198 503q0 -203 120 -303t286 -100q241 0 418 191l102 -73q-91 -118 -236 -182t-298 -64q-236 0 -385 141t-149 350q0 303 198 478t466 175q150 0 286 -65t205 -189l-121 -69q-131 193 -391 193q-189 0 -324.5 -108.5t-159.5 -254.5h483l-16 -120h-484z" />
    <glyph glyph-name="afii10102" unicode="&#x455;" horiz-adv-x="795" 
d="M400 984q-72 0 -123 -47t-51 -97t30 -91q30 -40 162 -125t182 -160q49 -76 49 -175q1 -137 -95 -227t-249 -90q-202 0 -340 179l85 99q121 -147 263 -147q81 0 141 57t60 125t-37 114t-169 136q-132 89 -175 151t-43 139q0 121 91 206t230 85q83 0 149 -33t134 -117
l-76 -113q-92 131 -218 131z" />
    <glyph glyph-name="afii10103" unicode="&#x456;" horiz-adv-x="410" 
d="M164 1088h133l-145 -1088h-138zM274 1536q46 0 79 -33t33 -79t-33 -80q-33 -32 -79 -32t-80 32q-32 32 -32 80q0 46 32 79q34 33 80 33z" />
    <glyph glyph-name="afii10104" unicode="&#x457;" horiz-adv-x="410" 
d="M165 1088h133l-145 -1088h-138zM510 1518q48 0 76 -29t29 -76q-1 -47 -41 -87t-88 -40t-76 28t-29 76q0 48 40 88q41 40 89 40zM101 1518q48 0 77 -29t29 -76q-1 -47 -41 -87t-88 -40t-76 28t-29 76q0 48 40 88t88 40z" />
    <glyph glyph-name="afii10105" unicode="&#x458;" horiz-adv-x="416" 
d="M-76 -426q-53 0 -121 28l17 119q36 -22 74 -22q82 0 109 188l167 1201h137l-159 -1158q-30 -216 -84 -286t-140 -70zM280 1536q46 0 80 -33q33 -33 33 -79t-33 -80q-34 -32 -80 -32t-79 32t-33 80q0 46 33 79t79 33z" />
    <glyph glyph-name="afii10106" unicode="&#x459;" horiz-adv-x="1599" 
d="M956 118q135 0 190.5 15t96 64t40.5 133t-75 139t-211 55h-267l129 -406h97zM1001 656q210 0 319.5 -94t109.5 -237t-97 -234t-264 -91h-315l-257 828l-478 -828h-140l645 1088h25l142 -432h310z" />
    <glyph glyph-name="afii10107" unicode="&#x45a;" horiz-adv-x="1757" 
d="M1129 118q135 0 191 15t95.5 63.5t39.5 134.5t-76.5 139.5t-208.5 53.5h-146l-55 -406h160zM1170 656q211 0 319 -92.5t108 -238.5t-93 -235.5t-334 -89.5h-357l71 524h-631l-72 -524h-141l147 1088h141l-57 -432h630l58 432h141l-59 -432h129z" />
    <glyph glyph-name="afii10108" unicode="&#x45b;" horiz-adv-x="1249" 
d="M693 1116q145 0 257.5 -94t112.5 -278q0 -108 -18 -244l-69 -500h-138l68 500q21 151 21 251t-69.5 169.5t-180.5 69.5t-203 -56.5t-146 -154.5t-83 -314l-64 -465h-140l171 1252h-154l16 120h155l16 136h139l-16 -136h420l-17 -120h-419l-47 -331q172 195 388 195z" />
    <glyph glyph-name="afii10109" unicode="&#x45c;" horiz-adv-x="1051" 
d="M188 1088h141l-62 -458l565 458h206l-618 -498l504 -590h-198l-432 503l-49 -39l-63 -464h-141zM752 1598h215l-339 -308h-138z" />
    <glyph glyph-name="afii10110" unicode="&#x45e;" horiz-adv-x="1098" 
d="M47 1088h144l282 -803l466 803h155l-862 -1486h-157l308 531zM603 1421q82 1 135 23t105 81h128q-35 -91 -135 -151t-246 -60q-148 0 -232 60t-96 151h132q53 -104 209 -104z" />
    <glyph glyph-name="afii10193" unicode="&#x45f;" horiz-adv-x="1249" 
d="M439 0h-398l147 1088h141l-130 -956h637l128 956h141l-146 -1088h-387l-23 -172h-132z" />
    <glyph glyph-name="afii10050" unicode="&#x490;" horiz-adv-x="848" 
d="M193 0h-146l199 1471h517l33 210h141l-48 -355h-517z" />
    <glyph glyph-name="afii10098" unicode="&#x491;" horiz-adv-x="780" 
d="M346 965l-131 -965h-139l147 1088h439l22 135h134l-35 -258h-437z" />
    <glyph glyph-name="Wgrave" unicode="&#x1e80;" horiz-adv-x="1966" 
d="M126 1471h143l204 -1093l569 1093h28l257 -1093l520 1093h155l-702 -1471h-27l-259 1108l-586 -1108h-27zM1032 1895l175 -308h-138l-252 308h215z" />
    <glyph glyph-name="wgrave" unicode="&#x1e81;" horiz-adv-x="1702" 
d="M70 1088h139l224 -768l409 768h24l248 -776l400 776h150l-562 -1088h-28l-252 768l-409 -768h-26zM835 1598l175 -308h-138l-252 308h215z" />
    <glyph glyph-name="Wacute" unicode="&#x1e82;" horiz-adv-x="1966" 
d="M126 1471h143l204 -1093l569 1093h28l257 -1093l520 1093h155l-702 -1471h-27l-259 1108l-586 -1108h-27zM1261 1895h215l-339 -308h-138z" />
    <glyph glyph-name="wacute" unicode="&#x1e83;" horiz-adv-x="1702" 
d="M70 1088h139l224 -768l409 768h24l248 -776l400 776h150l-562 -1088h-28l-252 768l-409 -768h-26zM1064 1598h215l-339 -308h-138z" />
    <glyph glyph-name="Wdieresis" unicode="&#x1e84;" horiz-adv-x="1966" 
d="M126 1471h143l204 -1093l569 1093h28l257 -1093l520 1093h155l-702 -1471h-27l-259 1108l-586 -1108h-27zM1318 1816q48 0 76 -29t29 -76q-1 -47 -41 -87t-88 -40t-76 28t-29 76q0 48 40 88q41 40 89 40zM909 1816q48 0 77 -29t29 -76q-1 -47 -41 -87t-88 -40t-76 28
t-29 76q0 48 40 88t88 40z" />
    <glyph glyph-name="wdieresis" unicode="&#x1e85;" horiz-adv-x="1702" 
d="M70 1088h139l224 -768l409 768h24l248 -776l400 776h150l-562 -1088h-28l-252 768l-409 -768h-26zM1108 1518q48 0 78 -29q28 -29 28 -76t-40 -87t-89 -40t-77 28t-28 76t40 88t88 40zM700 1518q48 0 77 -29t29 -76t-40 -87t-89 -40t-77 28t-28 76t40 88t88 40z" />
    <glyph glyph-name="Ygrave" unicode="&#x1ef2;" horiz-adv-x="1212" 
d="M83 1471h154l315 -668l531 668h178l-652 -819l-89 -652h-144l89 660zM615 1895l175 -308h-138l-252 308h215z" />
    <glyph glyph-name="ygrave" unicode="&#x1ef3;" horiz-adv-x="1098" 
d="M47 1088h144l282 -803l466 803h155l-862 -1486h-157l308 531zM539 1598l175 -308h-138l-252 308h215z" />
    <glyph glyph-name="endash" unicode="&#x2013;" horiz-adv-x="1024" 
d="M-12 637h1048v-129h-1048v129z" />
    <glyph glyph-name="emdash" unicode="&#x2014;" horiz-adv-x="2048" 
d="M-12 637h2072v-129h-2072v129z" />
    <glyph glyph-name="afii00208" unicode="&#x2015;" horiz-adv-x="1536" 
d="M-66 637h1560v-129h-1560v129z" />
    <glyph glyph-name="underscoredbl" unicode="&#x2017;" horiz-adv-x="1024" 
d="M-12 -296h1048v-102h-1048v102zM-12 -118h1048v-103h-1048v103z" />
    <glyph glyph-name="quoteleft" unicode="&#x2018;" horiz-adv-x="719" 
d="M444 1508l72 -44q-55 -91 -72 -131t-30 -99h88l-39 -277h-176l13 123q15 155 47 245t97 183z" />
    <glyph glyph-name="quoteright" unicode="&#x2019;" horiz-adv-x="719" 
d="M359 957l-72 44q55 91 72 131t30 99h-88l38 277h177l-13 -123q-16 -156 -47.5 -245.5t-96.5 -182.5z" />
    <glyph glyph-name="quotesinglbase" unicode="&#x201a;" horiz-adv-x="725" 
d="M231 -274l-72 44q55 91 72 131t30 99h-88l38 277h177l-13 -123q-16 -156 -47.5 -245.5t-96.5 -182.5z" />
    <glyph glyph-name="quotereversed" unicode="&#x201b;" horiz-adv-x="719" 
d="M303 1162q0 100 27 245l19 101h176l-41 -277h-86q-4 -37 -4 -81t33 -150l-79 -43q-45 105 -45 205z" />
    <glyph glyph-name="quotedblleft" unicode="&#x201c;" horiz-adv-x="1028" 
d="M349 1508l72 -44q-55 -91 -72 -131t-30 -99h88l-39 -277h-176l13 123q15 155 47 245t97 183zM790 1508l72 -44q-55 -91 -72 -131t-30 -99h88l-39 -277h-176l13 123q15 155 47 245t97 183z" />
    <glyph glyph-name="quotedblright" unicode="&#x201d;" horiz-adv-x="991" 
d="M686 957l-72 44q55 91 72 131t30 99h-88l38 277h177l-13 -123q-16 -156 -47.5 -245.5t-96.5 -182.5zM245 957l-72 44q55 91 72 131t30 99h-88l38 277h177l-13 -123q-16 -156 -47.5 -245.5t-96.5 -182.5z" />
    <glyph glyph-name="quotedblbase" unicode="&#x201e;" horiz-adv-x="1028" 
d="M603 -274l-72 44q55 91 72 131t30 99h-88l38 277h177l-13 -123q-16 -156 -47.5 -245.5t-96.5 -182.5zM162 -274l-72 44q55 91 72 131t30 99h-88l38 277h177l-13 -123q-16 -156 -47.5 -245.5t-96.5 -182.5z" />
    <glyph glyph-name="dagger" unicode="&#x2020;" horiz-adv-x="1133" 
d="M575 1508h148l-87 -457l363 21l-21 -149l-357 26l-150 -1263h-152l205 1263l-364 -26l21 149l358 -21z" />
    <glyph glyph-name="daggerdbl" unicode="&#x2021;" horiz-adv-x="1133" 
d="M577 1508h148l-73 -354l361 23l-21 -148l-354 27l-41 -459l-87 -452l361 20l-21 -148l-354 28l-27 -359h-148l75 359l-361 -28l21 148l354 -20l39 452l89 459l-361 -27l21 148l354 -23z" />
    <glyph glyph-name="bullet" unicode="&#x2022;" horiz-adv-x="1241" 
d="M620 1053q127 0 217 -89.5t90 -217.5t-90 -218t-217 -90t-217 90t-90 218t90 217.5t217 89.5z" />
    <glyph glyph-name="ellipsis" unicode="&#x2026;" horiz-adv-x="2048" 
d="M1706 216q50 0 86.5 -36t36.5 -86t-36.5 -86t-86.5 -36t-86 36t-36 86t36 86t86 36zM341 216q51 0 86.5 -36t35.5 -86t-35.5 -86t-86.5 -36t-86.5 36t-35.5 86t35.5 86t86.5 36zM1024 216q51 0 86.5 -36t35.5 -86t-35.5 -86t-86.5 -36t-86.5 36t-35.5 86t35.5 86t86.5 36
z" />
    <glyph glyph-name="perthousand" unicode="&#x2030;" horiz-adv-x="2404" 
d="M1964 551q-96 0 -175.5 -82.5t-79.5 -182.5t56.5 -159t157.5 -59t174 85t73 185t-55 156.5t-151 56.5zM1967 659q143 0 232.5 -87.5t89.5 -229.5t-106 -260.5t-286 -118.5q-136 0 -221.5 85.5t-85.5 230.5t117 262.5t260 117.5zM1172 551q-96 0 -175.5 -82.5
t-79.5 -182.5t56.5 -159t157.5 -59t174 85t73 185t-55 156.5t-151 56.5zM1175 659q143 0 232.5 -87.5t89.5 -229.5t-106 -260.5t-286 -118.5q-136 0 -221.5 85.5t-85.5 230.5t117 262.5t260 117.5zM482 1399q-96 0 -175.5 -82t-79.5 -182t56 -159t157 -59t174 85.5t73 185.5
t-54.5 155.5t-150.5 55.5zM885 1364q-50 0 -127 5q48 -78 48 -164q0 -168 -112 -281t-264 -113t-237.5 85.5t-85.5 217.5q0 165 120 279.5t264 114.5q39 0 161 -25t233 -25q246 0 504 78h104l-1307 -1638h-116l1202 1510q-178 -44 -387 -44z" />
    <glyph glyph-name="minute" unicode="&#x2032;" horiz-adv-x="405" 
d="M268 1045h-103l43 463h148z" />
    <glyph glyph-name="second" unicode="&#x2033;" horiz-adv-x="633" 
d="M188 1045h-104l43 463h148zM576 1045h-104l44 463h148z" />
    <glyph glyph-name="guilsinglleft" unicode="&#x2039;" horiz-adv-x="514" 
d="M326 1088h152l-302 -550l142 -538h-136l-149 557z" />
    <glyph glyph-name="guilsinglright" unicode="&#x203a;" horiz-adv-x="514" 
d="M149 0h-152l302 550l-141 538h135l149 -557z" />
    <glyph glyph-name="exclamdbl" unicode="&#x203c;" horiz-adv-x="971" 
d="M572 216q50 0 85.5 -36t35.5 -86t-35.5 -86t-86.5 -36t-86.5 36t-35.5 86t36.5 86t86.5 36zM205 216q50 0 86 -35t36 -86t-35.5 -87t-86.5 -36t-86.5 36t-35.5 86t36 86t86 36zM683 1508h138l-151 -1141h-140zM317 1508h138l-151 -1141h-140z" />
    <glyph glyph-name="radicalex" unicode="&#x203e;" horiz-adv-x="1135" 
d="M-42 1869h1219v-74h-1219v74z" />
    <glyph glyph-name="fraction" unicode="&#x2044;" horiz-adv-x="340" 
d="M-394 -37l932 1545h112l-933 -1545h-111z" />
    <glyph glyph-name="fraction" unicode="&#x2215;" horiz-adv-x="340" 
d="M-394 -37l932 1545h112l-933 -1545h-111z" />
    <glyph glyph-name="nsuperior" unicode="&#x207f;" horiz-adv-x="690" 
d="M420 1273q92 0 145 -69.5t53 -159.5t-10 -158l-46 -311h-117l45 311q13 85 13 141t-27.5 99t-79.5 43t-94.5 -34.5t-59 -86.5t-35.5 -181l-45 -292h-114l104 681h113l-11 -76q74 93 166 93z" />
    <glyph glyph-name="franc" unicode="&#x20a3;" horiz-adv-x="993" 
d="M249 418h251l-19 -132h-250l-39 -286h-145l38 286h-169l19 132h168l142 1053h709l-17 -144h-565l-65 -481h565l-18 -141h-566z" />
    <glyph glyph-name="afii08941" unicode="&#x20a4;" horiz-adv-x="1135" 
d="M220 248q-42 0 -70 -23t-28 -55t18.5 -51t46.5 -19q67 0 130 111q-55 37 -97 37zM741 114q109 0 144 229h146q-10 -127 -85.5 -253.5t-206.5 -126.5t-309 159q-112 -159 -253 -159q-84 0 -137.5 53t-53.5 141t68 157.5t158 69.5t160 -41q32 106 32 238h-314l20 137h285
l-12 116h-256l19 137h217q-12 75 -12 137q0 196 117.5 298t271.5 102t244 -91.5t90 -260.5l-1 -32h-144q-3 242 -189 242q-101 0 -171.5 -65.5t-70.5 -178.5q0 -60 15 -151h356l-18 -137h-318q10 -69 15 -116h285l-18 -137h-263q-2 -189 -55 -323q145 -108 176 -126t68 -18z
" />
    <glyph glyph-name="peseta" unicode="&#x20a7;" horiz-adv-x="2303" 
d="M529 840q180 0 262.5 20t141.5 91t59 157t-36 136.5t-98 67.5t-203 17h-263l-68 -489h205zM1920 1116q170 0 283 -150l-75 -113q-88 131 -218 131q-80 0 -127.5 -50t-47.5 -100t35.5 -90.5t133.5 -103.5q170 -110 212 -189.5t42 -161.5q0 -142 -98.5 -229.5t-245.5 -87.5
q-202 0 -340 179l85 99q121 -147 263 -147q72 0 136.5 53.5t64.5 125.5t-37.5 117.5t-151.5 123.5t-174 142.5t-60 149.5t38 151h-212l-132 -966h-140l132 966h-177q-36 -94 -110 -159.5t-168.5 -88.5t-301.5 -23h-223l-94 -695h-147l197 1471h401q197 0 279.5 -34.5
t139.5 -114t57 -198.5q0 -18 -2 -36h164l58 407h137l-54 -407h339q70 28 139 28z" />
    <glyph glyph-name="Euro" unicode="&#x20ac;" horiz-adv-x="1135" 
d="M1008 1507q76 0 155 -14l-57 -141q-48 12 -105 12q-230 0 -406.5 -102.5t-279.5 -296.5h656l-58 -138h-647q-20 -70 -20 -174h596l-56 -137h-522q39 -189 202.5 -301.5t379.5 -112.5q82 0 147 15l-18 -140q-60 -12 -123 -12q-290 0 -492 147t-249 404h-146l53 137h76
q8 137 19 174h-105l58 138h86q103 258 328 400t528 142z" />
    <glyph glyph-name="afii61248" unicode="&#x2105;" horiz-adv-x="1847" 
d="M1456 590q-86 0 -154.5 -77.5t-68.5 -192.5t52.5 -173t142.5 -58t153 84.5t63 192.5t-51 166t-137 58zM1458 698q134 0 216 -91t82 -243t-98 -266.5t-240 -114.5t-221 92t-79 242t103 265.5t237 115.5zM396 -37l933 1545h111l-933 -1545h-111zM488 1399
q-121 0 -195.5 -79.5t-74.5 -187.5t51 -170.5t129 -62.5t140.5 31.5t93.5 79.5l97 -64q-125 -152 -315 -152q-155 0 -232 94t-77 243t110.5 263t268.5 114q197 0 284 -178l-97 -51q-62 120 -183 120z" />
    <glyph glyph-name="afii61289" unicode="&#x2113;" horiz-adv-x="731" 
d="M577 1268q0 48 -20.5 76t-51.5 28q-58 0 -80 -158l-36 -262q120 137 154 202.5t34 113.5zM490 1491q94 0 160.5 -69.5t66.5 -155.5t-60.5 -200t-300.5 -345l-67 -470q-6 -43 -6 -66q0 -72 46 -72q64 0 211 111l-11 -169q-111 -79 -203 -79t-153 56t-61 170q0 63 9 124
l31 217l-79 -67l-79 110l188 161l62 444q26 189 89 244.5t157 55.5z" />
    <glyph glyph-name="afii61352" unicode="&#x2116;" horiz-adv-x="2259" 
d="M1386 102h686l-12 -102h-686zM2018 671q0 76 -49 137.5t-153 61.5t-181 -85t-77 -179t54 -156t156 -62t176 85t74 198zM2138 663q0 -147 -109 -264t-267 -117t-241 88.5t-83 214.5q0 159 118 276.5t257 117.5t232 -84.5t93 -231.5zM1265 1471h144l-199 -1471h-32
l-828 1140l-154 -1140h-146l198 1471h32l830 -1142z" />
    <glyph glyph-name="trademark" unicode="&#x2122;" horiz-adv-x="2048" 
d="M770 1513v-137h-305v-725h-150v725h-303v137h758zM1966 1513v-862h-150v710l-321 -710h-99l-311 710v-710h-149v862h243l267 -597l282 597h238z" />
    <glyph glyph-name="Ohm" unicode="&#x2126;" horiz-adv-x="1573" 
d="M146 165q47 0 276 -9q-115 84 -175 206.5t-60 265.5q0 222 174.5 548.5t622.5 326.5q250 0 393 -149.5t143 -410.5q0 -195 -82 -364t-221 -284q-88 -72 -253 -144q171 12 232 12h116l-48 -163h-545l44 171q153 65 241 135q149 119 230 284.5t81 359.5t-89.5 294.5
t-249.5 100.5t-282.5 -85.5t-218.5 -289.5t-96 -404q0 -263 198 -396l-46 -170h-531l50 165h96z" />
    <glyph glyph-name="estimated" unicode="&#x212e;" horiz-adv-x="1229" 
d="M879 605v297q-123 121 -299 121t-297 -122v-296h596zM283 531v-371q120 -121 298 -121q254 0 395 246l72 -43q-118 -170 -231.5 -223t-235.5 -53q-232 0 -380.5 158.5t-148.5 408.5t149.5 406.5t371.5 156.5t374 -142t163 -423h-827z" />
    <glyph glyph-name="oneeighth" unicode="&#x215b;" horiz-adv-x="1702" 
d="M1457 226q0 54 -41.5 94.5t-123.5 40.5t-146.5 -44.5t-64.5 -108.5t48 -98t130 -34t140 48t58 102zM1471 575q0 44 -36.5 72.5t-98.5 28.5t-112 -37t-50 -83t38 -71t102 -25t110.5 35.5t46.5 79.5zM1565 238q0 -109 -91 -182.5t-220 -73.5t-207 62.5t-78 148.5
q0 150 189 225q-94 56 -94 142t85 150.5t193 64.5t174.5 -56.5t66.5 -130.5q0 -111 -147 -180q129 -61 129 -170zM296 1489h204l-120 -756h-109l104 658h-122zM250 -37l932 1545h112l-932 -1545h-112z" />
    <glyph glyph-name="threeeighths" unicode="&#x215c;" horiz-adv-x="1702" 
d="M1457 228q0 56 -43.5 94.5t-123.5 38.5t-144.5 -44.5t-64.5 -108.5t48 -98t130 -34t140 48t58 104zM1471 575q0 44 -37 72.5t-99 28.5t-111.5 -37t-49.5 -81t35.5 -71t101.5 -27t113 35.5t47 79.5zM1565 238q0 -109 -91 -182.5t-220 -73.5t-207 62.5t-78 148.5
q0 150 189 225q-94 56 -94 142t85 150.5t192 64.5t174.5 -56t67.5 -131q0 -111 -147 -180q129 -61 129 -170zM312 -37l932 1545h112l-932 -1545h-112zM424 1508q97 0 165.5 -56t68.5 -156t-122 -157q103 -67 103 -171t-91 -178.5t-209 -74.5t-196 61.5t-89 177.5h110
q23 -141 167 -141q77 0 136.5 46t59.5 107q0 132 -222 132l13 93q20 -1 32 -1q78 0 137.5 32.5t59.5 81.5t-40.5 77t-92.5 28q-120 0 -139 -104h-111q11 97 87 150t173 53z" />
    <glyph glyph-name="fiveeighths" unicode="&#x215d;" horiz-adv-x="1702" 
d="M1458 228q0 56 -44 94.5t-124 38.5t-144.5 -44.5t-64.5 -108.5t48.5 -98t130.5 -34t140 48t58 104zM1471 574q0 44 -36 73t-99 29t-112.5 -37t-49.5 -81t36 -71t102 -27t112.5 35t46.5 79zM1565 238q0 -109 -91.5 -182.5t-219.5 -73.5t-206.5 62.5t-78.5 148.5
q0 150 189 225q-94 56 -94 142t85 150.5t193 64.5t174.5 -56t66.5 -131q0 -111 -147 -180q129 -61 129 -170zM373 1239q104 0 179.5 -71t75.5 -178t-86.5 -191t-225.5 -84q-196 0 -281 171l101 38q59 -111 182 -111q75 0 136 48.5t61 122.5t-45.5 119t-121.5 45t-164 -33
l129 374h375l-16 -98h-280l-54 -153q22 1 35 1zM300 -37l932 1545h112l-932 -1545h-112z" />
    <glyph glyph-name="seveneighths" unicode="&#x215e;" horiz-adv-x="1702" 
d="M1457 226q0 54 -41.5 94.5t-123.5 40.5t-146.5 -44.5t-64.5 -108.5t48 -98t130 -34t140 48t58 102zM1471 575q0 44 -36.5 72.5t-98.5 28.5t-112 -37t-50 -83t38 -71t102 -25t110.5 35.5t46.5 79.5zM1565 238q0 -109 -91.5 -182.5t-217.5 -73.5t-206.5 60.5t-80.5 150.5
q0 150 189 225q-94 56 -94 142t85 150.5t193 64.5t174.5 -56t66.5 -131q0 -111 -147 -180q129 -61 129 -170zM149 1489h577l-571 -774l-93 52l461 624h-394zM225 -37l932 1545h112l-932 -1545h-112z" />
    <glyph glyph-name="arrowleft" unicode="&#x2190;" horiz-adv-x="2048" 
d="M1968 567v-101h-1595q102 -102 198 -309h-78q-223 253 -414 341v45q177 71 413 333h76q-81 -170 -195 -309h1595z" />
    <glyph glyph-name="arrowup" unicode="&#x2191;" horiz-adv-x="1024" 
d="M563 -429h-101v1597q-139 -114 -309 -195v77q262 236 333 413h46q87 -192 340 -415v-77q-207 96 -309 197v-1597z" />
    <glyph glyph-name="arrowright" unicode="&#x2192;" horiz-adv-x="2048" 
d="M79 466v101h1595q-114 139 -195 309h76q237 -262 413 -333v-45q-191 -88 -414 -341h-77q95 207 197 309h-1595z" />
    <glyph glyph-name="arrowdown" unicode="&#x2193;" horiz-adv-x="1024" 
d="M462 1463h101v-1598q102 102 309 197v-77q-253 -223 -340 -414h-46q-71 176 -333 413v76q170 -81 309 -195v1598z" />
    <glyph glyph-name="arrowboth" unicode="&#x2194;" horiz-adv-x="2048" 
d="M1968 540v-45q-181 -79 -406 -337h-80q69 172 194 311h-1305q125 -139 194 -311h-80q-224 258 -406 337v45q182 79 406 338h80q-69 -172 -194 -311h1305q-125 139 -194 311h80q225 -259 406 -338z" />
    <glyph glyph-name="arrowupdn" unicode="&#x2195;" horiz-adv-x="1024" 
d="M489 1463h45q79 -182 337 -407v-80q-171 69 -311 195v-1306q140 126 311 194v-79q-258 -225 -337 -407h-45q-79 182 -337 407v79q171 -68 311 -194v1306q-140 -126 -311 -195v80q258 225 337 407z" />
    <glyph glyph-name="arrowupdnbse" unicode="&#x21a8;" horiz-adv-x="1024" 
d="M154 -522h717v-98h-717v98zM489 1463h45q79 -182 337 -407v-80q-171 69 -311 195v-1306q140 126 311 194v-79q-258 -225 -337 -407h-45q-79 182 -337 407v79q171 -68 311 -194v1306q-140 -126 -311 -195v80q258 225 337 407z" />
    <glyph glyph-name="partialdiff" unicode="&#x2202;" horiz-adv-x="1012" 
d="M236 303q0 -83 51 -137t129 -54t235 116t203 568q-248 -15 -359 -69t-185 -175t-74 -249zM645 1491q94 0 211 -88.5t117 -476.5q0 -295 -87.5 -514.5t-231.5 -328t-286 -108.5t-227 92t-85 255q0 236 164 398q199 196 638 204q-4 191 -41 315t-164 124q-143 0 -227 -225
l-135 60q67 149 163.5 221t190.5 72z" />
    <glyph glyph-name="increment" unicode="&#x2206;" horiz-adv-x="1253" 
d="M990 82l-399 967l-440 -967h839zM1226 0h-1200l628 1387z" />
    <glyph glyph-name="product" unicode="&#x220f;" horiz-adv-x="1685" 
d="M162 1508h1362v-1906h-191v1732h-978v-1732h-193v1906z" />
    <glyph glyph-name="summation" unicode="&#x2211;" 
d="M139 1536h1237v-164h-988l607 -796l-646 -841h1037v-161h-1264v187l620 808l-603 791v176z" />
    <glyph glyph-name="minus" unicode="&#x2212;" horiz-adv-x="1241" 
d="M115 804h1012v-137h-1012v137z" />
    <glyph glyph-name="periodcentered" unicode="&#x2219;" horiz-adv-x="567" 
d="M253 857q51 0 86.5 -35.5t35.5 -85.5t-35.5 -86t-86.5 -36t-86.5 36t-35.5 86t35.5 85.5t86.5 35.5z" />
    <glyph glyph-name="radical" unicode="&#x221a;" horiz-adv-x="1124" 
d="M1047 1869h74l-312 -1947l-496 1021l-198 -91l-34 64l301 151l405 -823z" />
    <glyph glyph-name="infinity" unicode="&#x221e;" 
d="M392 873q-52 0 -90.5 -41.5t-38.5 -111.5t39.5 -113.5t97.5 -43.5q101 0 218 153q-77 97 -125.5 127t-100.5 30zM1026 499q68 0 119.5 56.5t51.5 159.5t-52 159.5t-118 56.5t-116.5 -36.5t-154.5 -177.5q82 -128 142 -173t128 -45zM1036 1044q94 0 183 -78t89 -244
t-84 -250t-188 -84t-173 49t-176 183q-136 -171 -289 -171q-102 0 -174 77.5t-72 189.5t72 189.5t174 77.5q153 0 289 -171q117 146 186 189t163 43z" />
    <glyph glyph-name="orthogonal" unicode="&#x221f;" horiz-adv-x="2005" 
d="M362 1279h100v-1179h1181v-100h-1281v1279z" />
    <glyph glyph-name="intersection" unicode="&#x2229;" horiz-adv-x="1206" 
d="M239 0h-110v621l2 238q2 239 60 346.5t156 197t256 89.5q118 0 225 -68.5t165 -174t71.5 -224t13.5 -404.5v-621h-110v628q0 243 -10 348.5t-52 190t-127.5 139.5t-175.5 55t-174.5 -55t-126 -137t-52.5 -189.5t-11 -351.5v-628z" />
    <glyph glyph-name="integral" unicode="&#x222b;" horiz-adv-x="561" 
d="M208 -64q39 0 39 52t-9 129q-37 316 -37 883t70 739q25 60 71 92t94 32t86 -32.5t38 -76.5t-26.5 -73t-63.5 -29t-69 28t-49 28q-40 0 -40 -53t23 -309t23 -418q0 -161 -15 -661q-9 -305 -84 -410q-55 -77 -141 -77q-52 0 -85 34t-33 82t25 76t65 28t69 -32t49 -32z" />
    <glyph glyph-name="approxequal" unicode="&#x2248;" horiz-adv-x="1124" 
d="M818 393q-95 1 -246 69t-187.5 79.5t-74.5 11.5t-91 -19.5t-165 -85.5v160q110 62 159 79t95 17q98 0 242 -68t188 -82t82 -14t81 16.5t169 94.5v-162q-112 -63 -160.5 -79.5t-91.5 -16.5zM818 765q-95 1 -246 69t-187.5 79.5t-74.5 11.5t-91 -19t-165 -86v160
q110 63 159 79.5t95 16.5q98 0 242 -68t188 -82t82 -14t81 16.5t169 94.5v-162q-112 -63 -160.5 -79.5t-91.5 -16.5z" />
    <glyph glyph-name="notequal" unicode="&#x2260;" horiz-adv-x="1124" 
d="M1068 1024v-137h-379l-117 -303h496v-137h-549l-187 -484h-138l186 484h-324v137h377l116 303h-493v137h545l186 484h142l-187 -484h326z" />
    <glyph glyph-name="equivalence" unicode="&#x2261;" horiz-adv-x="1241" 
d="M1127 364v-137h-1012v137h1012zM1127 804v-137h-1012v137h1012zM1127 1244v-137h-1012v137h1012z" />
    <glyph glyph-name="lessequal" unicode="&#x2264;" horiz-adv-x="1124" 
d="M1079 231v-137h-1033v137h1033zM1079 481v-146l-1033 469v130l1033 471v-147l-839 -390z" />
    <glyph glyph-name="greaterequal" unicode="&#x2265;" horiz-adv-x="1124" 
d="M1079 231v-137h-1033v137h1033zM46 481l839 387l-839 390v147l1033 -471v-130l-1033 -469v146z" />
    <glyph glyph-name="house" unicode="&#x2302;" horiz-adv-x="1229" 
d="M234 81h761v519l-381 427l-380 -427v-519zM153 0v634l461 519l462 -519v-634h-923z" />
    <glyph glyph-name="revlogicalnot" unicode="&#x2310;" horiz-adv-x="1241" 
d="M83 1024h1012v-137h-875v-440h-137v577z" />
    <glyph glyph-name="integraltp" unicode="&#x2320;" horiz-adv-x="1229" 
d="M687 -515h-145v1811q0 207 86 324t206 117q74 -1 106 -35t32 -74t-26 -66t-62 -26q-34 0 -56 14t-44 48q-22 36 -48 36t-38 -24t-11 -154v-1971z" />
    <glyph glyph-name="integralbt" unicode="&#x2321;" horiz-adv-x="1229" 
d="M542 1737h145v-1811q0 -207 -86 -324t-206 -117q-59 0 -99 28t-39 75q1 46 27 72t60 26t56 -14t44 -49t49 -35q25 0 37 24t12 154v1971z" />
    <glyph glyph-name="SF100000" unicode="&#x2500;" 
d="M1478 534h-1496v175h1496v-175z" />
    <glyph glyph-name="SF110000" unicode="&#x2502;" horiz-adv-x="1270" 
d="M452 -621v2485h175v-2485h-175z" />
    <glyph glyph-name="SF010000" unicode="&#x250c;" 
d="M1479 709v-175h-661v-1155h-175v1330h836z" />
    <glyph glyph-name="SF030000" unicode="&#x2510;" 
d="M642 534h-660v175h835v-1330h-175v1155z" />
    <glyph glyph-name="SF020000" unicode="&#x2514;" 
d="M643 534v1330h175v-1155h661v-175h-836z" />
    <glyph glyph-name="SF040000" unicode="&#x2518;" 
d="M817 534h-835v175h660v1155h175v-1330z" />
    <glyph glyph-name="SF080000" unicode="&#x251c;" 
d="M643 -621v2485h175v-1155h661v-175h-661v-1155h-175z" />
    <glyph glyph-name="SF090000" unicode="&#x2524;" 
d="M642 -621v1155h-660v175h660v1155h175v-2485h-175z" />
    <glyph glyph-name="SF060000" unicode="&#x252c;" 
d="M642 534h-660v175h1496v-175h-661v-1155h-175v1155z" />
    <glyph glyph-name="SF070000" unicode="&#x2534;" 
d="M1478 534h-1496v175h660v1155h175v-1155h661v-175z" />
    <glyph glyph-name="SF050000" unicode="&#x253c;" 
d="M642 534h-660v175h660v1155h175v-1155h661v-175h-661v-1155h-175v1155z" />
    <glyph glyph-name="SF430000" unicode="&#x2550;" 
d="M1478 344h-1496v175h1496v-175zM1478 724h-1496v175h1496v-175z" />
    <glyph glyph-name="SF240000" unicode="&#x2551;" 
d="M453 -621v2485h175v-2485h-175zM833 -621v2485h175v-2485h-175z" />
    <glyph glyph-name="SF510000" unicode="&#x2552;" 
d="M643 -621v1520h836v-175h-661v-205h661v-175h-661v-965h-175z" />
    <glyph glyph-name="SF520000" unicode="&#x2553;" 
d="M453 -621v1330h1026v-175h-471v-1155h-175v1140h-205v-1140h-175z" />
    <glyph glyph-name="SF390000" unicode="&#x2554;" 
d="M1008 344v-965h-175v1140h645v-175h-470zM628 -621h-175v1520h1025v-175h-850v-1345z" />
    <glyph glyph-name="SF220000" unicode="&#x2555;" 
d="M642 344h-660v175h660v205h-660v175h835v-1520h-175v965z" />
    <glyph glyph-name="SF210000" unicode="&#x2556;" 
d="M452 -621v1155h-470v175h1025v-1330h-175v1155h-205v-1155h-175z" />
    <glyph glyph-name="SF250000" unicode="&#x2557;" 
d="M452 344h-470v175h645v-1140h-175v965zM832 -621v1345h-850v175h1025v-1520h-175z" />
    <glyph glyph-name="SF500000" unicode="&#x2558;" 
d="M643 344v1520h175v-965h661v-175h-661v-205h661v-175h-836z" />
    <glyph glyph-name="SF490000" unicode="&#x2559;" 
d="M1478 534h-1025v1330h175v-1155h205v1155h175v-1155h470v-175z" />
    <glyph glyph-name="SF380000" unicode="&#x255a;" 
d="M1008 899h470v-175h-645v1140h175v-965zM628 1864v-1345h850v-175h-1025v1520h175z" />
    <glyph glyph-name="SF280000" unicode="&#x255b;" 
d="M817 344h-835v175h660v205h-660v175h660v965h175v-1520z" />
    <glyph glyph-name="SF270000" unicode="&#x255c;" 
d="M1007 534h-1025v175h470v1155h175v-1155h205v1155h175v-1330z" />
    <glyph glyph-name="SF260000" unicode="&#x255d;" 
d="M452 899v965h175v-1140h-645v175h470zM832 1864h175v-1520h-1025v175h850v1345z" />
    <glyph glyph-name="SF360000" unicode="&#x255e;" 
d="M643 -621v2485h175v-965h661v-175h-661v-205h661v-175h-661v-965h-175z" />
    <glyph glyph-name="SF370000" unicode="&#x255f;" 
d="M453 -621v2485h175v-2485h-175zM833 -621v2485h175v-1155h471v-175h-471v-1155h-175z" />
    <glyph glyph-name="SF420000" unicode="&#x2560;" 
d="M833 -621v1140h646v-175h-471v-965h-175zM833 724v1140h175v-965h471v-175h-646zM453 -621v2485h175v-2485h-175z" />
    <glyph glyph-name="SF190000" unicode="&#x2561;" 
d="M642 344h-660v175h660v205h-660v175h660v965h175v-2485h-175v965z" />
    <glyph glyph-name="SF200000" unicode="&#x2562;" 
d="M832 -621v2485h175v-2485h-175zM452 -621v1155h-470v175h470v1155h175v-2485h-175z" />
    <glyph glyph-name="SF230000" unicode="&#x2563;" 
d="M452 344h-470v175h645v-1140h-175v965zM627 1864v-1140h-645v175h470v965h175zM832 -621v2485h175v-2485h-175z" />
    <glyph glyph-name="SF470000" unicode="&#x2564;" 
d="M642 344h-660v175h1496v-175h-661v-965h-175v965zM1478 724h-1496v175h1496v-175z" />
    <glyph glyph-name="SF480000" unicode="&#x2565;" 
d="M452 -621v1155h-470v175h1496v-175h-471v-1155h-175v1140h-205v-1140h-175z" />
    <glyph glyph-name="SF410000" unicode="&#x2566;" 
d="M832 -621v1140h646v-175h-471v-965h-175zM452 344h-470v175h645v-1140h-175v965zM1478 724h-1496v175h1496v-175z" />
    <glyph glyph-name="SF450000" unicode="&#x2567;" 
d="M1478 344h-1496v175h1496v-175zM1478 724h-1496v175h660v965h175v-965h661v-175z" />
    <glyph glyph-name="SF460000" unicode="&#x2568;" 
d="M1478 534h-1496v175h470v1155h175v-1155h205v1155h175v-1155h471v-175z" />
    <glyph glyph-name="SF400000" unicode="&#x2569;" 
d="M1478 344h-1496v175h1496v-175zM1478 724h-646v1140h175v-965h471v-175zM627 724h-645v175h470v965h175v-1140z" />
    <glyph glyph-name="SF540000" unicode="&#x256a;" 
d="M642 344h-660v175h660v205h-660v175h660v965h175v-965h661v-175h-661v-205h661v-175h-661v-965h-175v965z" />
    <glyph glyph-name="SF530000" unicode="&#x256b;" 
d="M452 -621v1155h-470v175h470v1155h175v-1155h205v1155h175v-1155h471v-175h-471v-1155h-175v1155h-205v-1155h-175z" />
    <glyph glyph-name="SF440000" unicode="&#x256c;" 
d="M1008 344v-965h-175v1140h645v-175h-470zM452 344h-470v175h645v-1140h-175v965zM452 899v965h175v-1140h-645v175h470zM1008 899h470v-175h-645v1140h175v-965z" />
    <glyph glyph-name="upblock" unicode="&#x2580;" 
d="M1478 621h-1496v1243h1496v-1243z" />
    <glyph glyph-name="dnblock" unicode="&#x2584;" 
d="M1478 -621h-1496v1242h1496v-1242z" />
    <glyph glyph-name="block" unicode="&#x2588;" 
d="M-18 -621v2485h1496v-2485h-1496z" />
    <glyph glyph-name="lfblock" unicode="&#x258c;" 
d="M-18 -621v2485h748v-2485h-748z" />
    <glyph glyph-name="rtblock" unicode="&#x2590;" 
d="M730 -621v2485h748v-2485h-748z" />
    <glyph glyph-name="ltshade" unicode="&#x2591;" 
d="M1353 -379h125v-125h-125v125zM855 -379h124v-125h-124v125zM356 -379h125v-125h-125v125zM107 -130h125v-125h-125v125zM605 -130h125v-125h-125v125zM1104 -130h125v-125h-125v125zM1353 119h125v-124h-125v124zM855 119h124v-124h-124v124zM356 119h125v-124h-125v124
zM1104 369h125v-125h-125v125zM605 369h125v-125h-125v125zM107 369h125v-125h-125v125zM356 618h125v-125h-125v125zM855 618h124v-125h-124v125zM1353 618h125v-125h-125v125zM1104 867h125v-125h-125v125zM605 867h125v-125h-125v125zM107 867h125v-125h-125v125z
M356 1116h125v-124h-125v124zM855 1116h124v-124h-124v124zM1353 1116h125v-124h-125v124zM107 1366h125v-125h-125v125zM605 1366h125v-125h-125v125zM1104 1366h125v-125h-125v125zM1353 1615h125v-125h-125v125zM855 1615h124v-125h-124v125zM356 1615h125v-125h-125v125
zM1104 1864h125v-125h-125v125zM605 1864h125v-125h-125v125zM107 1864h125v-125h-125v125z" />
    <glyph glyph-name="shade" unicode="&#x2592;" 
d="M1228 -379h125v-125h-125v125zM979 -379h125v-125h-125v125zM730 -379h124v-125h-124v125zM480 -379h125v-125h-125v125zM231 -379h125v-125h-125v125zM-18 -379h125v-125h-125v125zM107 -130h124v-125h-124v125zM356 -130h124v-125h-124v125zM605 -130h125v-125h-125
v125zM854 -130h125v-125h-125v125zM1104 -130h124v-125h-124v125zM1353 -130h124v-125h-124v125zM1228 119h125v-124h-125v124zM979 119h125v-124h-125v124zM730 119h124v-124h-124v124zM480 119h125v-124h-125v124zM231 119h125v-124h-125v124zM-18 119h125v-124h-125v124z
M107 369h124v-125h-124v125zM356 369h124v-125h-124v125zM605 369h125v-125h-125v125zM854 369h125v-125h-125v125zM1104 369h124v-125h-124v125zM1353 369h124v-125h-124v125zM231 618h125v-125h-125v125zM1228 618h125v-125h-125v125zM979 618h125v-125h-125v125zM730 618
h124v-125h-124v125zM480 618h125v-125h-125v125zM-18 618h125v-125h-125v125zM1353 867h124v-125h-124v125zM1104 867h124v-125h-124v125zM854 867h125v-125h-125v125zM605 867h125v-125h-125v125zM356 867h124v-125h-124v125zM107 867h124v-125h-124v125zM1228 1116h125
v-124h-125v124zM979 1116h125v-124h-125v124zM730 1116h124v-124h-124v124zM480 1116h125v-124h-125v124zM231 1116h125v-124h-125v124zM-18 1116h125v-124h-125v124zM1353 1366h124v-125h-124v125zM1104 1366h124v-125h-124v125zM854 1366h125v-125h-125v125zM605 1366h125
v-125h-125v125zM356 1366h124v-125h-124v125zM107 1366h124v-125h-124v125zM1228 1615h125v-125h-125v125zM979 1615h125v-125h-125v125zM730 1615h124v-125h-124v125zM480 1615h125v-125h-125v125zM231 1615h125v-125h-125v125zM-18 1615h125v-125h-125v125zM1353 1864h124
v-125h-124v125zM1104 1864h124v-125h-124v125zM854 1864h125v-125h-125v125zM605 1864h125v-125h-125v125zM356 1864h124v-125h-124v125zM107 1864h124v-125h-124v125z" />
    <glyph glyph-name="dkshade" unicode="&#x2593;" horiz-adv-x="1495" 
d="M1122 -379v-125h124v125h-124zM872 -379v-125h125v125h-125zM623 -379v-125h125v125h-125zM374 -379v-125h124v125h-124zM125 -379v-125h124v125h-124zM374 -255v125h-125v-125h125zM623 -255v125h-125v-125h125zM872 -255v125h-124v-125h124zM1122 -255v125h-125v-125
h125zM1371 -255v125h-125v-125h125zM1122 119v-124h124v124h-124zM872 119v-124h125v124h-125zM623 119v-124h125v124h-125zM374 119v-124h124v124h-124zM125 119v-124h124v124h-124zM374 244v125h-125v-125h125zM623 244v125h-125v-125h125zM872 244v125h-124v-125h124z
M1122 244v125h-125v-125h125zM1371 244v125h-125v-125h125zM1122 618v-125h124v125h-124zM872 618v-125h125v125h-125zM498 493v125h-124v-125h124zM623 618v-125h125v125h-125zM125 618v-125h124v125h-124zM1246 867v-125h125v125h-125zM997 867v-125h125v125h-125z
M748 867v-125h124v125h-124zM498 867v-125h125v125h-125zM374 867h-125v-125h125v125zM1122 1116v-124h124v124h-124zM872 1116v-124h125v124h-125zM623 1116v-124h125v124h-125zM374 1116v-124h124v124h-124zM125 1116v-124h124v124h-124zM374 1366h-125v-125h125v125z
M623 1366h-125v-125h125v125zM872 1366h-124v-125h124v125zM1122 1366h-125v-125h125v125zM1371 1366h-125v-125h125v125zM1122 1615v-125h124v125h-124zM872 1615v-125h125v125h-125zM623 1615v-125h125v125h-125zM374 1615v-125h124v125h-124zM125 1615v-125h124v125h-124
zM1495 1490v-374h-124v-124h124v-374h-124v-125h124v-374h-124v-124h124v-374h-124v-125h124v-124h-1495v373h125v125h-125v374h125v125h-125v373h125v125h-125v374h125v125h-125v373h125v125h124v-125h125v125h124v-125h125v125h125v-125h124v125h125v-125h125v125h124
v-125h125v125h124v-249h-124v-125h124z" />
    <glyph glyph-name="filledbox" unicode="&#x25a0;" horiz-adv-x="1237" 
d="M146 944h944v-944h-944v944z" />
    <glyph glyph-name="H22073" unicode="&#x25a1;" horiz-adv-x="1237" 
d="M222 868v-792h792v792h-792zM146 944h944v-944h-944v944z" />
    <glyph glyph-name="H18543" unicode="&#x25aa;" horiz-adv-x="726" 
d="M594 445h-463v463l463 1v-464z" />
    <glyph glyph-name="H18551" unicode="&#x25ab;" horiz-adv-x="726" 
d="M207 521h311v312l-311 -1v-311zM594 445h-463v463l463 1v-464z" />
    <glyph glyph-name="filledrect" unicode="&#x25ac;" horiz-adv-x="2048" 
d="M0 703h2047v-386h-2047v386z" />
    <glyph glyph-name="triagup" unicode="&#x25b2;" horiz-adv-x="2027" 
d="M304 0l710 1419l710 -1419h-1420z" />
    <glyph glyph-name="triagrt" unicode="&#x25ba;" horiz-adv-x="2027" 
d="M288 1417l1451 -724l-1451 -724v1448z" />
    <glyph glyph-name="triagdn" unicode="&#x25bc;" horiz-adv-x="2027" 
d="M1724 1388l-710 -1419l-710 1419h1420z" />
    <glyph glyph-name="triaglf" unicode="&#x25c4;" horiz-adv-x="2027" 
d="M1739 1417v-1448l-1451 724z" />
    <glyph glyph-name="lozenge" unicode="&#x25ca;" horiz-adv-x="1012" 
d="M495 1325l-340 -616l340 -615l359 615zM549 1422l418 -713l-418 -709h-111l-391 709l391 713h111z" />
    <glyph glyph-name="circle" unicode="&#x25cb;" horiz-adv-x="1229" 
d="M979 578q0 150 -107 257q-108 107 -258 107t-257 -108t-107 -256q0 -149 107 -257t257 -108q150 -1 258 107q107 108 107 258zM1055 578q1 -182 -129 -312t-312 -129q-182 0 -311 129q-129 130 -129 312t130 311t311 129q182 0 311 -129t129 -311z" />
    <glyph glyph-name="H18533" unicode="&#x25cf;" horiz-adv-x="1237" 
d="M620 1018q180 0 309.5 -129t129.5 -311t-129 -311.5t-311 -129.5t-311.5 129.5t-129.5 315.5t131 311t311 125z" />
    <glyph glyph-name="invbullet" unicode="&#x25d8;" horiz-adv-x="1229" 
d="M816 490q0 82 -59 142t-142 60t-143 -59t-60 -143t60 -142q60 -60 142 -60q84 0 143 60t59 142zM124 0v980h980v-980h-980z" />
    <glyph glyph-name="invcircle" unicode="&#x25d9;" horiz-adv-x="1229" 
d="M980 578q0 -150 -107 -258q-107 -107 -257 -107t-258 107q-107 108 -107 258q-1 150 107 257t258 107t256 -107q108 -107 108 -257zM1056 577q0 181 -130 311t-311 130q-182 0 -311 -130t-129 -311t129 -311t311 -129q181 -1 311 129t130 311zM38 0v1155h1155v-1155
h-1155z" />
    <glyph glyph-name="openbullet" unicode="&#x25e6;" horiz-adv-x="726" 
d="M363 852q-71 0 -123 -50t-52 -124t51.5 -125t123.5 -51t123.5 51t51.5 125t-52 124t-123 50zM362 928q102 0 177 -72t75 -178t-73.5 -179t-177.5 -73t-177.5 73.5t-73.5 177.5t74 177.5t176 73.5z" />
    <glyph glyph-name="smileface" unicode="&#x263a;" horiz-adv-x="2091" 
d="M1046 205q153 0 231 144l63 -36q-104 -195 -294 -195t-294 195l62 36q79 -144 232 -144zM1371 650q0 -34 -24 -57q-24 -24 -57 -24t-57 24q-24 23 -24 57t24 58q23 24 57 23q34 1 58 -23t23 -58zM882 650q0 -34 -24 -57q-24 -24 -56 -24q-34 0 -58 24q-24 23 -24 57
t24 58t58 23q34 1 56 -23q24 -24 24 -58zM1591 518q-1 224 -161 385q-160 160 -384 160t-385 -160q-160 -161 -160 -385t160 -384q161 -160 385 -160t384 160t161 384zM1683 520q0 -264 -187 -452q-186 -188 -450 -187t-451 187t-187 450t188 450q188 188 450 188
q264 0 450 -186t187 -450z" />
    <glyph glyph-name="invsmileface" unicode="&#x263b;" horiz-adv-x="2155" 
d="M1078 118q190 0 294 195l-63 36q-78 -144 -231 -144t-232 144l-62 -36q104 -195 294 -195zM1403 650q1 34 -23 58t-58 23q-34 1 -57 -23q-24 -24 -24 -58t24 -57q24 -24 57 -24t57 24q24 23 24 57zM914 650q0 34 -24 58t-56 23q-34 1 -58 -23t-24 -58t24 -57
q24 -24 58 -24t56 24q24 23 24 57zM1715 520q0 -264 -187 -452q-186 -188 -450 -187t-451 187t-187 450t188 450q188 188 450 188q264 0 450 -186t187 -450z" />
    <glyph glyph-name="sun" unicode="&#x263c;" horiz-adv-x="1878" 
d="M1450 700q0 212 -150 361q-150 150 -362 150q-212 -1 -362 -151t-151 -361q1 -211 151 -362t361 -151t362 151t151 363zM902 1621h76v-337q191 -7 350 -140l289 283l52 -53l-286 -286q140 -175 143 -358h336v-69h-336q-14 -190 -143 -348l286 -289l-57 -51l-284 280
q-167 -125 -350 -139v-337h-76v337q-203 25 -345 139l-296 -280l-49 51l284 289q-125 153 -144 352h-336v69h336q14 197 144 349l-284 287l49 57l291 -283q180 130 350 140v337z" />
    <glyph glyph-name="female" unicode="&#x2640;" horiz-adv-x="1131" 
d="M992 955q0 176 -125 301t-301 125q-176 1 -302 -125t-126 -302t126 -300q126 -126 301 -126t301 126t126 301zM591 116h417v-54h-417v-399h-54v399h-418v54h418v365q-81 -1 -189 51t-184 168q-75 116 -75 256q-1 196 139 336t336 140t337 -140q140 -140 140 -330
q1 -190 -127 -330q-128 -138 -323 -151v-365z" />
    <glyph glyph-name="male" unicode="&#x2642;" horiz-adv-x="1366" 
d="M528 516q-156 0 -269 -114q-114 -114 -114 -276q1 -164 117 -274t276 -111t272 113t111 276t-119 274t-274 112zM1047 81q0 -188 -133 -304t-332 -116q-200 1 -340 135t-140 322t130 316t307 128q76 0 170 -33l293 636q-214 -90 -457 -104v27q165 52 255 98t307 186
l29 -10q35 -359 161 -615l-25 -16q-149 188 -222 415l-295 -635q110 -42 201 -162t91 -268z" />
    <glyph glyph-name="spade" unicode="&#x2660;" horiz-adv-x="1092" 
d="M1032 492q0 -89 -64 -153t-156 -64q-154 0 -254 190q0 -229 101 -325t277 -103l7 -37h-793l8 37q182 0 282 105t101 282v41q-90 -190 -262 -190q-91 0 -155 66t-64 155q0 150 188 305q262 215 299 430q19 -82 65 -169t186 -214t186 -197q48 -70 48 -159z" />
    <glyph glyph-name="club" unicode="&#x2663;" horiz-adv-x="1354" 
d="M328 273q-104 0 -186 81q-82 82 -82 196t72 196t170 82q64 0 163 -51q-67 106 -67 182q0 113 79 193t197 79q118 1 198 -79t81 -181q0 -101 -69 -194q106 53 162 53q105 0 176 -82t71 -196t-81 -196t-193 -82q-78 0 -167 50t-165 187q7 -289 171 -395q78 -51 237 -82
l8 -34h-848l8 34q153 32 219 68t126 139q58 103 58 228l-1 42q-55 -117 -143 -177t-194 -61z" />
    <glyph glyph-name="heart" unicode="&#x2665;" horiz-adv-x="1210" 
d="M60 982q0 96 74 172t183 76q206 0 290 -251q33 129 113 191t180 61q100 0 176 -75q74 -75 74 -168t-40 -188t-174 -264q-284 -360 -329 -560q-33 122 -93 228t-218 315q-158 208 -197 287t-39 176z" />
    <glyph glyph-name="diamond" unicode="&#x2666;" horiz-adv-x="1038" 
d="M517 1231q193 -323 461 -627q-52 -52 -214 -265t-247 -363q-101 190 -457 628q324 383 457 627z" />
    <glyph glyph-name="musicalnote" unicode="&#x266a;" horiz-adv-x="1579" 
d="M1554 941q0 -17 -20 -45t-44 -28t-68 55q-45 55 -185 179t-242 188l26 -1374q1 -122 -71 -193t-218 -131t-291 -61q-197 0 -306 99t-109 228q0 159 162 279t364 120q201 0 405 -94l-31 1372h60q164 -100 366 -309t202 -285z" />
    <glyph glyph-name="musicalnotedbl" unicode="&#x266b;" horiz-adv-x="2048" 
d="M1766 185q0 -148 -38 -221t-124 -121q-88 -48 -217 -48t-197 77t-67 190q0 113 90 198t234 85q84 0 200 -50v850l-699 -217v-981q0 -123 -30 -203t-120 -136q-92 -56 -215 -57q-123 0 -201 69t-78 195q0 125 93 207t230 82q95 0 205 -54v1145l934 291v-1301z" />
    <glyph glyph-name="apple" unicode="&#xf000;" horiz-adv-x="1617" 
 />
    <glyph glyph-name="fi" unicode="&#xf001;" horiz-adv-x="997" 
d="M875 1088l-157 -1088h-138l154 1088h141zM600 1536q134 0 210.5 -70.5t88.5 -200.5h-143q-20 138 -151 138q-87 0 -135.5 -47.5t-67.5 -170.5l-15 -97h223l-16 -121h-225l-138 -967h-139l133 967h-140l18 121h144l15 107q24 173 114 257t224 84z" />
    <glyph glyph-name="fi" unicode="&#xfb01;" horiz-adv-x="997" 
d="M875 1088l-157 -1088h-138l154 1088h141zM600 1536q134 0 210.5 -70.5t88.5 -200.5h-143q-20 138 -151 138q-87 0 -135.5 -47.5t-67.5 -170.5l-15 -97h223l-16 -121h-225l-138 -967h-139l133 967h-140l18 121h144l15 107q24 173 114 257t224 84z" />
    <glyph glyph-name="fl" unicode="&#xf002;" horiz-adv-x="993" 
d="M616 1536q112 0 190.5 -80t78.5 -218q0 -61 -10 -137l-153 -1101h-143l161 1137q9 63 9 121t-41.5 99t-117.5 41t-123.5 -50.5t-63.5 -175.5l-12 -84h224l-19 -122h-223l-138 -966h-134l134 966h-149l15 122h150q28 198 69 279.5t112.5 125t183.5 43.5z" />
    <glyph glyph-name="fl" unicode="&#xfb02;" horiz-adv-x="993" 
d="M616 1536q112 0 190.5 -80t78.5 -218q0 -61 -10 -137l-153 -1101h-143l161 1137q9 63 9 121t-41.5 99t-117.5 41t-123.5 -50.5t-63.5 -175.5l-12 -84h224l-19 -122h-223l-138 -966h-134l134 966h-149l15 122h150q28 198 69 279.5t112.5 125t183.5 43.5z" />
    <glyph glyph-name="foursuperior" unicode="&#xf003;" horiz-adv-x="680" 
d="M462 1214l-213 -226h177zM620 1532l-87 -544h122l-16 -100h-121l-24 -155h-108l24 155h-397z" />
    <glyph glyph-name="commaaccent" unicode="&#xf004;" horiz-adv-x="682" 
d="M222 -75l114 -57l-230 -339l-85 37z" />
    <glyph glyph-name="undercommaaccent" unicode="&#xf005;" horiz-adv-x="682" 
d="M225 -110q138 0 138 -95q0 -70 -69 -122.5t-184 -52.5q-63 0 -138 21l32 70q56 -12 97 -12q139 0 139 70q0 38 -62 38q-26 0 -61 -7l24 80q40 10 84 10z" />
    <glyph glyph-name="pi1" unicode="&#xf006;" horiz-adv-x="1124" 
d="M126 914l44 149h1061l-48 -150h-120l-281 -913h-201l280 913l-378 1l-280 -914h-203l282 914h-156z" />
    <glyph glyph-name="noGamma" unicode="&#xf100;" horiz-adv-x="1111" 
d="M177 1467h889v-174h-695v-1293h-194v1467z" />
    <glyph glyph-name="noTheta" unicode="&#xf101;" horiz-adv-x="1530" 
d="M492 829h547v-167h-547v167zM769 1345q-210 0 -329 -150t-119 -458q0 -222 83 -420.5t357 -198.5q211 0 330 149t119 455t-115.5 464.5t-325.5 158.5zM761 1503q311 0 482.5 -203.5t171.5 -568.5q0 -225 -73.5 -404t-221.5 -273t-352 -94t-345 86.5t-224.5 261
t-83.5 426.5q0 348 167.5 558.5t478.5 210.5z" />
    <glyph glyph-name="noPhi" unicode="&#xf102;" horiz-adv-x="1713" 
d="M1390 722q0 425 -435 433v-866q435 8 435 433zM325 723q0 -409 436 -434v866q-436 -4 -436 -432zM761 1503h194v-194q643 -23 643 -587t-643 -585v-312h-194v312q-646 23 -646 587q0 264 150.5 417.5t495.5 167.5v194z" />
    <glyph glyph-name="noalpha" unicode="&#xf103;" horiz-adv-x="1287" 
d="M626 942q-152 0 -232 -109t-80 -303t79 -307t226 -113t227.5 104.5t80.5 303.5t-74.5 311.5t-226.5 112.5zM584 -28q-231 0 -355.5 154t-124.5 399t130 400t363 155t350 -197l44 180h195q-71 -259 -71 -531t84 -532h-202q-31 113 -45 192q-137 -220 -368 -220z" />
    <glyph glyph-name="nodelta" unicode="&#xf104;" horiz-adv-x="1270" 
d="M642 841q-159 0 -244.5 -97.5t-85.5 -267.5t87.5 -269t231.5 -99t234.5 93.5t90.5 260.5t-77.5 273t-236.5 106zM394 1307q0 116 99 182.5t248 66.5t256 -31v-132q-123 20 -205 20t-137.5 -35.5t-55.5 -84.5t31 -90t115 -108q244 -191 332.5 -325t88.5 -290
q0 -215 -140 -361.5t-386 -146.5t-391 144t-145 369q0 151 67 251.5t167 157t223 56.5q36 0 91 -8q-159 123 -208.5 202t-49.5 163z" />
    <glyph glyph-name="noepsilon" unicode="&#xf105;" horiz-adv-x="1047" 
d="M746 -28q-300 0 -471 142.5t-171 396.5t153.5 411.5t456.5 157.5q100 0 216 -14v-147l-26 2q-129 9 -180 9q-366 0 -407 -320h605v-141h-607q3 -152 114 -249.5t344 -97.5q96 0 170 16v-150q-102 -16 -197 -16z" />
    <glyph glyph-name="nosigma" unicode="&#xf106;" horiz-adv-x="1398" 
d="M640 955q-330 0 -330 -443q0 -180 81 -292t243 -112t241 113t79 305t-75.5 310.5t-238.5 118.5zM1359 1064v-152h-340q142 -136 142 -386t-138 -402t-386 -152t-390.5 149t-142.5 407t141.5 405t362.5 147l288 -16h463z" />
    <glyph glyph-name="notau" unicode="&#xf107;" horiz-adv-x="981" 
d="M41 1063h900v-160h-353v-903h-194v903h-353v160z" />
    <glyph glyph-name="nophi" unicode="&#xf108;" horiz-adv-x="1580" 
d="M1266 530q0 406 -380 411v-819q380 2 380 408zM315 534q0 -410 381 -412v819q-132 -5 -256.5 -72t-124.5 -335zM698 1332h188v-257q269 -4 429.5 -137t160.5 -393q0 -174 -55 -288t-195.5 -191t-341.5 -81v-372h-190v373q-246 2 -418 130.5t-172 409.5t160 411t434 140
v255z" />
  </font>
</defs>
</svg>
