<?xml version="1.0" standalone="no"?><!DOCTYPE svg PUBLIC "-//W3C//DTD SVG 1.1//EN" "http://www.w3.org/Graphics/SVG/1.1/DTD/svg11.dtd" ><svg xmlns="http://www.w3.org/2000/svg"><metadata>Generated by Glifo</metadata><defs><font id="myFont" horiz-adv-x="1024"><font-face units-per-em="1024" ascent="960" descent="-64" /><missing-glyph horiz-adv-x="1024" /><glyph unicode="&#xe600;"  d="M896,475 896,549 826,549 826,622 756,622 756,549 687,549 687,475 756,475 756,402 826,402 826,475 z M607,506 C607,523 605,536 603,549 C603,549 372,549 372,549 L 372,461 C372,461 511,461 511,461 C505,423 469,350 372,350 C289,350 221,423 221,512 C221,601 289,674 372,674 C420,674 452,652 470,634 C470,634 536,701 536,701 C493,743 438,768 372,768 C237,768 128,654 128,512 C128,370 237,256 372,256 C513,256 607,360 607,506z"/> <glyph unicode="&#xe601;"  d="M356,681 C356,662 362,647 372,636 C383,625 397,619 415,619 C434,619 448,625 459,635 C469,646 475,661 475,681 C475,681 475,796 475,796 C475,813 469,827 459,838 C448,849 434,854 417,854 C399,854 384,849 373,839 C362,828 356,815 356,797 C356,797 356,681 356,681z M259,625 305,625 305,751 358,928 312,928 283,807 280,807 251,928 204,928 259,745 z M538,622 C545,622 553,624 561,629 C570,633 577,640 585,649 C585,649 585,625 585,625 L 626,625 626,848 585,848 C585,848 585,679 585,679 C581,674 577,670 572,667 C568,664 564,662 561,662 C557,662 554,663 553,666 C551,668 550,672 550,677 C550,677 550,848 550,848 L 509,848 C509,848 509,662 509,662 C509,648 512,638 516,632 C521,625 528,622 538,622z M828,455 C828,509 784,553 730,553 C654,556 576,558 496,557 C416,558 338,556 262,553 C208,553 164,509 164,455 C161,412 160,370 160,327 C160,284 161,241 164,198 C164,144 208,101 262,101 C338,97 416,96 496,96 C576,96 654,97 730,101 C784,101 828,144 828,198 C831,241 832,284 832,327 C832,370 831,412 828,455z M398,799 C398,804 400,808 403,811 C406,814 410,815 415,815 C420,815 425,814 428,811 C431,808 433,804 433,799 C433,799 433,677 433,677 C433,671 431,666 428,663 C425,660 421,658 415,658 C410,658 406,660 403,663 C400,666 398,671 398,677 C398,677 398,799 398,799z M305,179 260,179 260,439 212,439 212,483 353,483 353,439 305,439 z M469,179 428,179 C428,179 428,204 428,204 C421,195 413,188 405,183 C396,179 389,176 381,176 C371,176 364,180 360,186 C355,193 352,203 352,216 C352,216 352,403 352,403 L 393,403 C393,403 393,232 393,232 C393,226 394,223 396,220 C397,218 400,217 404,217 C407,217 411,218 415,221 C420,224 424,228 428,233 C428,233 428,403 428,403 L 469,403 z M626,226 C626,210 623,198 616,189 C610,181 601,177 588,177 C581,177 573,178 567,182 C561,185 555,190 550,197 C550,197 550,179 550,179 L 509,179 509,483 550,483 C550,483 550,385 550,385 C555,392 561,397 567,401 C573,404 580,406 586,406 C599,406 609,401 616,392 C622,382 626,368 626,350 C626,350 626,226 626,226z M776,286 698,286 C698,286 698,244 698,244 C698,232 700,224 703,219 C705,215 710,213 716,213 C723,213 728,214 730,218 C733,222 735,231 735,244 C735,244 735,259 735,259 L 776,259 C776,259 776,243 776,243 C776,220 771,202 761,191 C751,179 736,173 715,173 C697,173 683,180 672,192 C662,204 657,221 657,243 C657,243 657,343 657,343 C657,362 662,378 674,390 C685,403 700,409 718,409 C737,409 751,403 761,392 C771,381 776,364 776,343 C776,343 776,286 776,286z M730,364 C733,360 735,353 735,343 C735,343 735,321 735,321 L 698,321 C698,321 698,343 698,343 C698,353 700,360 703,364 C706,368 710,370 717,370 C723,370 727,368 730,364z M579,365 C582,361 584,355 584,347 C584,347 584,232 584,232 C584,225 583,220 580,216 C578,213 574,212 569,212 C566,212 563,213 559,214 C556,216 553,218 550,222 C550,222 550,361 550,361 C553,365 555,367 558,368 C561,370 564,370 567,370 C572,370 577,368 579,365z"/> <glyph unicode="&#xe602;"  d="M496,832 C310,832 160,682 160,496 C160,358 243,240 361,188 C360,212 361,240 367,265 C373,293 410,449 410,449 L 410,449 C410,449 399,470 399,502 C399,551 428,589 464,589 C495,589 510,566 510,538 C510,507 490,462 480,419 C471,383 498,354 533,354 C597,354 639,436 639,533 C639,607 590,662 500,662 C398,662 334,586 334,501 C334,471 343,451 356,435 C363,428 363,425 361,416 C360,410 356,395 354,389 C352,381 345,378 338,381 C291,400 269,451 269,509 C269,605 349,719 509,719 C637,719 722,626 722,527 C722,395 648,296 540,296 C504,296 470,316 458,338 C458,338 439,261 435,246 C427,220 414,194 401,174 C431,165 463,160 496,160 C682,160 832,310 832,496 C832,682 682,832 496,832z"/> <glyph unicode="&#xe603;"  d="M655,521 C655,435 587,365 503,365 C419,365 351,435 351,521 C351,540 355,559 361,576 C361,576 174,576 174,576 L 174,576 C174,576 174,344 174,344 C174,251 248,176 339,176 C339,176 668,176 668,176 C758,176 832,251 832,344 C832,344 832,576 832,576 L 832,576 C832,576 645,576 645,576 C652,559 655,540 655,521z M412,521 C412,469 453,427 503,427 C554,427 594,469 594,521 C594,572 554,614 503,614 C453,614 412,572 412,521z M832,680 C832,680 832,631 832,631 L 832,631 C832,631 610,631 610,631 C583,659 545,676 503,676 C461,676 423,659 396,631 C396,631 174,631 174,631 L 174,631 C174,631 174,680 174,680 C174,735 200,783 239,814 C239,814 239,673 239,673 L 275,673 C275,673 275,835 275,835 C287,840 299,843 311,846 C311,846 311,673 311,673 L 347,673 347,848 C347,848 668,848 668,848 C758,848 832,773 832,680z M741,689 C741,679 733,670 723,670 C723,670 667,670 667,670 C657,670 649,679 649,689 C649,689 649,746 649,746 C649,756 657,765 667,765 C667,765 723,765 723,765 C733,765 741,756 741,746 C741,746 741,689 741,689z"/> <glyph unicode="&#xe604;"  d="M160,160 832,160 832,832 160,832 z M739,685 C739,685 678,685 678,685 C656,685 649,673 649,656 C649,656 649,598 649,598 L 739,598 728,495 649,495 649,208 527,208 527,495 466,495 466,598 527,598 C527,598 527,656 527,656 C527,725 550,781 649,784 C649,784 739,784 739,784 L 739,685z"/> <glyph unicode="&#xe605;"  d="M849,711 C824,700 797,692 769,689 C797,706 820,734 830,766 C803,750 773,738 741,732 C716,759 679,776 639,776 C562,776 500,714 500,637 C500,626 501,615 503,605 C387,611 284,666 215,751 C203,730 196,706 196,681 C196,632 221,590 258,565 C235,565 214,572 195,582 C195,581 195,581 195,580 C195,513 243,456 307,444 C295,440 283,439 270,439 C261,439 253,440 244,441 C262,386 313,345 375,344 C327,307 267,285 201,285 C190,285 179,285 168,287 C230,247 303,224 382,224 C639,224 780,436 780,621 C780,627 779,633 779,639 C806,658 830,683 849,711z"/> <glyph unicode="&#xe606;"  d="M810,864 C810,864 182,864 182,864 C152,864 128,840 128,811 C128,811 128,181 128,181 C128,152 152,128 182,128 C182,128 810,128 810,128 C840,128 864,152 864,181 C864,181 864,811 864,811 C864,840 840,864 810,864z M524,532 524,533 523,532 z M351,248 240,248 240,580 351,580 z M296,626 C296,626 295,626 295,626 C257,626 233,651 233,683 C233,716 258,740 296,740 C334,740 358,716 358,683 C358,651 334,626 296,626z M752,248 641,248 C641,248 641,426 641,426 C641,470 625,501 584,501 C554,501 535,480 527,460 C525,453 524,443 524,433 C524,433 524,248 524,248 L 413,248 C413,248 414,549 413,580 C413,580 524,580 524,580 L 524,580 C524,580 524,533 524,533 C539,556 565,588 624,588 C697,588 752,541 752,438 C752,438 752,248 752,248z"/> <glyph unicode="&#xe607;"  d="M361,151 926,717 813,830 247,264 z M66,445 180,558 474,264 361,151 z "/> <glyph unicode="&#xe608;"  d="M416,96 576,96 576,896 416,896 z M96,416 896,416 896,576 96,576 z "/> <glyph unicode="&#xe609;"  d="M800,496 C800,664 664,800 496,800 C329,800 192,664 192,496 C192,328 329,192 496,192 C664,192 800,328 800,496z M496,256 C364,256 257,364 257,496 C257,629 364,736 496,736 C629,736 736,629 736,496 C736,364 629,256 496,256z M497,384 535,424 652,545 613,585 497,465 380,585 341,545 458,424 z "/> <glyph unicode="&#xe610;"  d="M193,496 C193,328 328,192 496,192 C664,192 800,328 800,496 C800,664 664,800 496,800 C328,800 193,664 193,496z M496,736 C628,736 736,628 736,496 C736,363 628,256 496,256 C364,256 256,363 256,496 C256,628 364,736 496,736z M496,608 457,568 340,447 379,407 496,527 613,407 652,447 535,568 z "/> <glyph unicode="&#xe611;"  d="M496,192 C664,192 800,328 800,496 C800,663 664,800 496,800 C328,800 192,663 192,496 C192,328 328,192 496,192z M256,496 C256,628 364,735 496,735 C629,735 736,628 736,496 C736,363 629,256 496,256 C364,256 256,363 256,496z M384,495 424,457 545,340 585,379 465,495 585,612 545,651 424,534 z "/> <glyph unicode="&#xe612;"  d="M496,800 C328,800 192,665 192,497 C192,329 328,193 496,193 C664,193 800,329 800,497 C800,665 664,800 496,800z M736,497 C736,365 628,257 496,257 C363,257 256,365 256,497 C256,629 363,737 496,737 C628,737 736,629 736,497z M608,497 568,536 447,653 407,614 527,497 407,380 447,341 568,458 z "/> <glyph unicode="t"  d="M496,672 428,602 224,390 292,320 496,531 700,320 768,390 564,602 z "/> <glyph unicode="b"  d="M496,320 564,390 768,602 700,672 496,461 292,672 224,602 428,390 z "/> <glyph unicode="r"  d="M672,496 602,564 390,768 320,700 531,496 320,292 390,224 602,428 z "/> <glyph unicode="l"  d="M320,496 390,428 602,224 672,292 461,496 672,700 602,768 390,564 z "/> <glyph unicode="&#xe617;"  d="M320,722 548,496 320,270 365,224 640,496 365,768 z "/> <glyph unicode="&#xe618;"  d="M640,270 412,496 640,722 595,768 320,496 595,224 z "/> <glyph unicode="&#xe619;"  d="M270,320 496,548 722,320 768,365 496,640 224,365 z "/> <glyph unicode="&#xe620;"  d="M738,656 512,430 286,656 240,611 512,339 784,611 z "/> <glyph unicode="&#xe621;"  d="M700,507 288,93 296,85 715,507 296,928 288,921 z "/> <glyph unicode="&#xe622;"  d="M303,507 715,921 707,928 288,507 707,85 715,93 z "/> <glyph unicode="&#xe623;"  d="M567,484 864,780 773,871 477,574 186,865 95,775 386,484 96,194 186,103 477,394 774,96 865,187 z "/> <glyph unicode="&#xe624;"  d="M557,512 784,738 738,784 512,557 286,784 240,738 467,512 240,286 286,240 512,467 738,240 784,286 z "/> <glyph unicode="&#xe625;"  d="M458,363 C576,363 672,459 672,577 C672,695 576,791 458,791 C340,791 244,695 244,577 C244,459 340,363 458,363z M547,412 619,341 697,263 697,263 C697,263 700,259 700,259 C710,249 726,249 736,259 C736,259 778,301 778,301 C787,311 787,327 778,337 C778,337 774,340 774,340 L 774,340 695,420 624,490 z M458,736 C546,736 617,664 617,576 C617,488 575,415 458,417 C370,418 298,488 298,576 C298,664 370,736 458,736z"/></font>
</defs>
</svg>
